<?xml version="1.0" standalone="no"?>
<!DOCTYPE svg PUBLIC "-//W3C//DTD SVG 1.1//EN" "http://www.w3.org/Graphics/SVG/1.1/DTD/svg11.dtd" >
<svg xmlns="http://www.w3.org/2000/svg">
<metadata>Generated by IcoMoon</metadata>
<defs>
<font id="icomoon" horiz-adv-x="1024">
<font-face units-per-em="1024" ascent="960" descent="-64" />
<missing-glyph horiz-adv-x="1024" />
<glyph unicode="&#x20;" horiz-adv-x="512" d="" />
<glyph unicode="&#xe900;" glyph-name="home1" d="M863.046-21.084h-702.123c-8.564 0-15.515 6.951-15.515 15.515v577.040c0 8.564 6.951 15.515 15.515 15.515s15.515-6.951 15.515-15.515v-561.524h671.092v561.524c0 8.564 6.951 15.515 15.515 15.515s15.515-6.951 15.515-15.515v-577.040c0-8.564-6.92-15.515-15.515-15.515zM1008.485 417.219c-3.817 0-7.664 1.396-10.674 4.22l-485.841 458.814-485.779-458.783c-6.237-5.896-16.136-5.585-21.938 0.621-5.865 6.237-5.616 16.043 0.621 21.938l496.423 468.837c5.989 5.679 15.329 5.648 21.349 0l496.516-468.837c6.206-5.896 6.485-15.701 0.621-21.938-3.072-3.227-7.168-4.872-11.295-4.872zM635.842-21.084h-247.653c-8.564 0-15.515 6.951-15.515 15.515v336.244c0 8.564 6.951 15.515 15.515 15.515h247.653c8.564 0 15.515-6.951 15.515-15.515v-336.244c0-8.564-6.951-15.515-15.515-15.515zM403.704 9.946h216.623v305.214h-216.623v-305.214z" />
<glyph unicode="&#xe901;" glyph-name="restaurant" d="M512.598 722.519c-167.112 0-303.066-135.954-303.066-303.066s135.956-303.068 303.066-303.068 303.068 135.956 303.068 303.068-135.956 303.066-303.068 303.066zM512.598 156.387c-145.056 0-263.068 118.012-263.068 263.068 0 145.054 118.010 263.066 263.068 263.066 145.056 0 263.068-118.010 263.068-263.066s-118.012-263.068-263.068-263.068zM692.002 517.213c-5.294 9.694-17.442 13.262-27.138 7.97-0.324-0.178-0.624-0.382-0.936-0.574-8.97-5.55-12.15-17.194-7.034-26.564 13.072-23.942 19.98-51.12 19.98-78.592 0-90.582-73.694-164.276-164.276-164.276-90.584 0-164.276 73.696-164.276 164.276 0 90.582 73.694 164.276 164.276 164.276 8.692 0 17.416-0.684 25.926-2.034 10.556-1.676 20.444 5.236 22.658 15.546 0.078 0.358 0.168 0.71 0.226 1.078 1.728 10.91-5.714 21.156-16.624 22.884-10.576 1.676-21.406 2.526-32.188 2.526-112.636 0-204.276-91.638-204.276-204.276s91.638-204.276 204.276-204.276 204.278 91.64 204.278 204.276c0 34.152-8.6 67.956-24.872 97.76zM640.38 586.577c-0.92 0.92-1.94 1.76-3.040 2.48-1.080 0.72-2.24 1.34-3.46 1.84-1.2 0.5-2.46 0.88-3.74 1.14-2.58 0.52-5.24 0.52-7.82 0-1.28-0.26-2.52-0.64-3.74-1.14-1.2-0.5-2.36-1.12-3.44-1.84-1.1-0.72-2.12-1.56-3.060-2.48-0.92-0.92-1.74-1.94-2.48-3.040-0.72-1.080-1.34-2.24-1.84-3.46-0.316-0.756-0.566-1.54-0.784-2.334-0.128-0.466-0.258-0.932-0.354-1.406-0.258-1.278-0.38-2.598-0.38-3.898 0-1.32 0.12-2.622 0.38-3.922 0.26-1.28 0.64-2.52 1.14-3.738 0.5-1.202 1.12-2.362 1.84-3.442 0.74-1.1 1.56-2.12 2.48-3.040 0.94-0.92 1.96-1.76 3.060-2.5 1.080-0.72 2.24-1.34 3.44-1.84 1.22-0.5 2.46-0.88 3.74-1.14 1.3-0.26 2.62-0.378 3.92-0.378s2.62 0.12 3.9 0.378c1.28 0.258 2.54 0.64 3.74 1.14 1.048 0.43 2.038 0.962 2.984 1.556 0.156 0.098 0.322 0.182 0.474 0.284 1.1 0.74 2.12 1.58 3.040 2.5s1.76 1.94 2.48 3.040c0.72 1.080 1.34 2.24 1.84 3.442 0.5 1.218 0.88 2.478 1.14 3.738 0.26 1.3 0.4 2.602 0.4 3.922 0 5.26-2.14 10.42-5.86 14.138zM1023.488 133.027l-64.868 528.29c-4.514 36.768-16.060 71.758-34.32 103.994-11.208 19.79-24.824 38.192-40.468 54.696l-1.746 1.842c-13.328 14.062-33.264 17.81-50.796 9.548-17.528-8.26-27.328-26.026-24.966-45.258l82.226-669.682c0.264-2.15 0.626-4.264 1.082-6.34 6.832-31.126 34.632-53.36 66.338-53.356 2.75 0 5.536 0.166 8.332 0.51 22.088 2.712 40.422 15.794 50.716 33.764 1.084 1.892 2.078 3.836 2.978 5.83s1.706 4.034 2.414 6.118c3.186 9.372 4.362 19.582 3.078 30.044zM846.028 791.015c-0.098 0.802-0.36 2.94 2.318 4.202 0.734 0.346 1.378 0.48 1.938 0.48 1.482 0 2.372-0.94 2.772-1.364l1.746-1.842c13.416-14.152 25.088-29.928 34.696-46.892 15.654-27.636 25.554-57.634 29.424-89.156l34.572-281.56-55.534-6.818-51.932 422.95zM982.056 114.515c-3.646-9.232-12.098-16.248-22.624-17.54-15.318-1.892-29.298 9.046-31.178 24.358l-25.42 207.030 55.534 6.818 25.42-207.030c0.588-4.782-0.078-9.438-1.732-13.636zM246.652 816.541c-10.968 1.352-20.942-6.452-22.288-17.414l-18.19-148.144c-2.836-23.088-21.494-40.506-44.584-41.914l-13.258 1.628 23.922 194.826c1.346 10.962-6.45 20.942-17.414 22.29-10.966 1.358-20.942-6.452-22.288-17.414l-23.922-194.826-13.27 1.628c-22.060 6.956-35.946 28.368-33.112 51.454l18.19 148.142c1.346 10.962-6.45 20.942-17.414 22.29-10.962 1.36-20.942-6.452-22.288-17.414l-18.19-148.142c-4.55-37.066 14.368-71.818 46.28-88.486l-68.040-437.874c-0.008-0.048-0.016-0.1-0.024-0.15-2.762-18.718 2.032-37.316 13.498-52.366s28.124-24.61 46.888-26.914l0.364-0.044c2.898-0.356 5.79-0.532 8.66-0.532 15.818 0 31.024 5.348 43.548 15.452 14.798 11.938 23.898 28.94 25.624 47.874l40.216 440.954c35 8.45 61.768 37.594 66.318 74.662l18.19 148.144c1.344 10.962-6.452 20.942-17.416 22.29zM99.512 134.121c-0.736-8.058-4.608-15.292-10.906-20.374s-14.182-7.35-22.204-6.352l-0.364 0.044c-7.992 0.98-15.082 5.048-19.96 11.454-4.868 6.388-6.91 14.278-5.754 22.222l67.482 434.256 15.782-1.938c0.008 0 0.014-0.002 0.022-0.004 0.006 0 0.012 0 0.018 0l15.77-1.936-39.886-437.372z" />
<glyph unicode="&#xe902;" glyph-name="bonfire" d="M233.281 402.129c-3.492 0-6.987 1.335-9.653 4-5.332 5.332-5.332 13.974 0 19.306l38.612 38.612c5.332 5.332 13.974 5.332 19.306 0s5.332-13.974 0-19.306l-38.612-38.612c-2.666-2.669-6.161-4-9.653-4zM271.892 402.129c-3.492 0-6.987 1.335-9.653 4l-38.612 38.612c-5.332 5.332-5.332 13.974 0 19.306s13.974 5.332 19.306 0l38.612-38.612c5.332-5.332 5.332-13.974 0-19.306-2.666-2.669-6.158-4-9.653-4zM342.508 661.543c-3.492 0-6.987 1.335-9.653 4-5.332 5.332-5.332 13.974 0 19.306l38.612 38.612c5.332 5.332 13.974 5.332 19.306 0s5.332-13.974 0-19.306l-38.612-38.612c-2.666-2.669-6.161-4-9.653-4zM381.119 661.543c-3.492 0-6.987 1.335-9.653 4l-38.612 38.612c-5.332 5.332-5.332 13.974 0 19.306s13.974 5.332 19.306 0l38.612-38.612c5.332-5.332 5.332-13.974 0-19.306-2.666-2.669-6.158-4-9.653-4zM151.361 784.423c-3.492 0-6.987 1.335-9.653 4-5.332 5.332-5.332 13.974 0 19.306l38.612 38.612c5.332 5.332 13.974 5.332 19.306 0s5.332-13.974 0-19.306l-38.612-38.615c-2.666-2.666-6.161-3.997-9.653-3.997zM189.972 784.423c-3.492 0-6.987 1.335-9.653 4l-38.612 38.612c-5.332 5.332-5.332 13.974 0 19.306s13.974 5.332 19.306 0l38.612-38.612c5.332-5.332 5.332-13.974 0-19.306-2.666-2.669-6.158-4-9.653-4zM834.028 757.116c-3.492 0-6.987 1.335-9.653 4-5.332 5.332-5.332 13.974 0 19.306l38.612 38.612c5.332 5.332 13.974 5.332 19.306 0s5.332-13.974 0-19.306l-38.612-38.612c-2.666-2.669-6.161-4-9.653-4zM872.639 757.116c-3.492 0-6.987 1.335-9.653 4l-38.612 38.612c-5.332 5.332-5.332 13.974 0 19.306s13.974 5.332 19.306 0l38.612-38.612c5.332-5.332 5.332-13.974 0-19.306-2.666-2.669-6.158-4-9.653-4zM810.267 619.876c-2.748 4.338-7.666 6.84-12.793 6.301-5.106-0.468-9.527-3.761-11.435-8.52-9.008-22.528-17.712-34.755-24.361-41.141 23.146 158.86-145.848 251.928-147.633 252.887-3.253 1.748-7.052 2.099-10.588 0.993-3.519-1.106-6.441-3.601-8.093-6.898-0.273-0.546-29.068-57.313-163.212-271.947-39.567-63.307-51.115-123.259-34.314-178.193 26.586-86.941 115.432-134.581 152.392-151.026 8.479-3.779 17.62-5.693 27.16-5.693h27.143c16.507-0.355 35.096-0.649 50.784-0.741h0.468c4.451 0 8.796 0.502 13.080 1.225 8.151 0.55 16.166 2.198 23.306 5.475 83.954 38.485 136.899 92.942 157.372 161.847 34.611 116.463-36.243 230.622-39.274 235.431zM625.353 534.061c7.38-38.373 27.965-96.154 85.34-124.839 11.793-5.895 19.132-14.5 22.432-26.307 7.434-26.593-5.54-69.219-35.601-116.954-7.509-11.93-19.913-19.753-34.051-22.019h-58.699c-3.68 0.079-7.383 0.157-10.776 0.239-16.592 0.413-31.754 8.881-40.554 22.654-30.761 48.128-35.058 99.492-12.892 153.006 12.326-18.026 31.526-39.366 53.367-39.366 3.881 0 7.581 1.652 10.168 4.547 2.594 2.888 3.826 6.748 3.407 10.605-0.116 0.98-8.687 83.026 17.859 138.435zM823.375 392.22c-13.223-44.5-42.496-82.371-86.934-113.258 16.995 32.754 32.857 76.005 22.989 111.302-5.42 19.374-17.708 33.973-36.519 43.38-73.223 36.611-74.377 136.991-74.377 137.998-0.014 5.513-3.345 10.486-8.448 12.592-5.1 2.092-10.967 0.939-14.862-2.959-43.834-43.834-47.527-124.747-46.36-164.912-10.134 9.66-20.92 25.679-27.354 38.492-2.28 4.54-6.895 7.448-11.974 7.533-4.98 0.099-9.793-2.645-12.22-7.107-42.465-77.848-29.467-142.060-6.615-186.252-35.601 22.221-80.582 59.433-96.758 112.312-14.38 47.032-3.826 99.427 31.365 155.74 101.895 163.034 142.954 234.735 157.501 261.168 15.367-9.912 43.339-29.966 68.68-58.774 48.527-55.159 65.14-115.115 49.367-178.193-1.553-6.212 1.42-12.667 7.141-15.527 1.833-0.922 11.66-5.219 25.272-0.055 13.227 5.028 25.347 17.275 36.188 36.519 17.835-37.297 46.404-114.326 23.917-190zM841.26 177.689c-4.714 22.095-26.501 36.205-48.599 31.526l-154.153-32.853c-0.154-0.034-0.263-0.143-0.416-0.181l-212.838 52.719c-21.893 5.4-44.179-7.98-49.606-29.914-5.427-21.92 7.987-44.172 29.914-49.606l49.186-12.182-49.34-10.516c-22.081-4.7-36.226-26.501-31.519-48.592 4.099-19.227 21.146-32.427 40.059-32.427 2.819 0 5.673 0.294 8.54 0.901l214.030 45.612 153.378-37.99c3.294-0.812 6.595-1.208 9.847-1.208 18.381 0 35.147 12.486 39.759 31.119 4.83 19.511-5.311 39.209-23.054 47.152 18.111 7.277 29.017 26.696 24.812 46.442zM798.355 182.509c7.4 1.519 14.633-3.161 16.2-10.513 1.567-7.359-3.147-14.626-10.506-16.193l-44.971-9.588-60.597 15.008zM416.792 73.268c-7.373-1.567-14.626 3.161-16.2 10.513-1.567 7.359 3.147 14.626 10.506 16.193l102.967 21.948c0.317 0.068 0.55 0.283 0.853 0.372l61.007-15.111zM812.995 90.656c-0.874-3.54-3.079-6.526-6.199-8.407-3.133-1.881-6.813-2.427-10.339-1.56l-384.331 95.198c-7.315 1.812-11.786 9.226-9.974 16.541 0.874 3.54 3.079 6.526 6.199 8.407 2.161 1.3 4.574 1.966 7.028 1.966 1.106 0 2.212-0.133 3.314-0.406l384.328-95.201c7.311-1.812 11.786-9.226 9.974-16.538z" />
<glyph unicode="&#xe903;" glyph-name="hot-air-balloon" d="M530.466 943.533c-19.255-0.218-12.103 0-20.144 0-206.109 0.017-332.28-147.825-310.238-319.37-44.929-0.459-85.651-26.533-104.868-67.148-45.947-2.020-81.711-40.64-80.203-86.607s39.728-82.159 85.709-81.161h196.558c22.587-33.245 48.457-64.137 77.22-92.21l29.461-128.772c-20.411-6.659-34.309-25.586-34.552-47.055s13.223-40.705 33.478-47.825v-87.023c0-27.813 22.547-50.361 50.361-50.361h134.295c27.813 0 50.361 22.547 50.361 50.361v87.023c20.255 7.12 33.721 26.356 33.478 47.825s-14.141 40.395-34.552 47.055l29.427 128.655c82.134 80.582 140.502 182.218 168.708 293.77h105.103c45.261 0.031 82.346 35.943 83.831 81.18s-33.164 83.504-78.325 86.504c-26.362 56.083-91.901 81.857-149.403 58.754-56.673 85.932-163.974 127.48-265.703 126.405zM767.161 800.509c-14.442-11.196-26.052-25.629-33.893-42.135-7.237-0.564-14.367-2.088-21.202-4.532-7.804 41.239-24.078 80.411-47.792 115.041 4.896 2.369 9.629 5.060 14.168 8.058 35.689-17.3 66.225-43.645 88.568-76.414zM569.075 171.017l10.727 64.797c15.455 7.039 30.171 15.597 43.931 25.55l-20.698-90.347zM505.789 171.017l-8.763 52.996c15.432-3.248 31.37-3.248 46.802 0l-8.796-52.996zM437.785 171.017l-20.665 90.347c13.76-9.952 28.477-18.511 43.931-25.55l10.66-64.797zM636.76 893.609c-75.837-23.359-156.947-23.359-232.784 0 75.969 22.464 156.815 22.464 232.784 0zM409.482 856.459c30.713-8.316 62.314-12.91 94.124-13.681v-487.709c-22.223-0.899-44.28-4.243-65.771-9.971-21.265 40.334-38.651 82.598-51.922 126.221 0.54 16.936-4.2 33.62-13.564 47.742-16.721 61.136-22.567 124.735-17.274 187.896 8.041 64.478 26.406 114.587 54.406 149.504zM367.448 421.142c10.819-29.85 23.594-58.954 38.241-87.124-4.669-2.093-9.224-4.429-13.648-7-21.189 21.28-40.64 44.223-58.167 68.608 13.175 5.519 24.728 14.3 33.574 25.516zM520.393 254.952c-28.907 0-64.63 16.904-102.031 47.91 65.709 25.14 138.386 25.14 204.095 0-37.401-31.005-73.14-47.91-102.064-47.91zM602.649 345.265c-21.407 5.612-43.357 8.899-65.469 9.804v487.709c31.897 0.776 63.583 5.393 94.376 13.748 26.094-35.776 43.137-77.338 49.672-121.134-17.545-16.242-27.213-39.276-26.514-63.174s11.694-46.329 30.157-61.519c-11.068-92.735-38.93-182.68-82.222-265.434zM234.664 705.613c12.689 74.336 60.332 138.043 128.050 171.226 4.449-2.932 9.087-5.567 13.883-7.89-31.124-47.216-49.969-101.455-54.826-157.797-5.182-53.303-2.17-107.085 8.931-159.475-7.388 2.831-15.144 4.584-23.032 5.204-14.288 30.318-40.856 53.080-73.006 62.548-5.12 28.5-5.12 57.684 0 86.184zM50.361 473.181c0.018 13.588 5.518 26.594 15.253 36.074s22.883 14.63 36.467 14.287c0.464 0.034 0.93 0.034 1.393 0 8.132-1.455 16.114 3.223 18.818 11.029 11.843 33.559 43.563 56.002 79.15 56.002s67.307-22.443 79.15-56.002c2.862-7.659 10.702-12.261 18.785-11.029 0.486 0.034 0.974 0.034 1.46 0 27.813 0.366 50.658-21.884 51.024-49.698s-21.884-50.658-49.698-51.024h-201.443c-27.813 0-50.361 22.547-50.361 50.361zM604.328-13.638c0-9.271-7.516-16.787-16.787-16.787h-134.295c-9.271 0-16.787 7.516-16.787 16.787v83.934h167.869zM621.115 103.87h-201.443c-9.271 0-16.787 7.516-16.787 16.787s7.516 16.787 16.787 16.787h201.443c9.271 0 16.787-7.516 16.787-16.787s-7.516-16.787-16.787-16.787zM648.863 326.884c-4.608 2.676-9.354 5.108-14.218 7.286 41.761 81.394 69.48 169.255 81.987 259.878 15.192-4.163 13.849-3.357 83.934-3.357-26.821-99.609-79.102-190.523-151.703-263.806zM940.066 624.263h-201.443c-9.881-0.007-19.543 2.914-27.766 8.393l-0.42 0.235c-18.569 12.525-26.635 35.808-19.793 57.135s26.948 35.573 49.337 34.957c0.464 0.034 0.93 0.034 1.393 0 8.132-1.455 16.114 3.223 18.818 11.029 11.843 33.559 43.563 56.002 79.15 56.002s67.307-22.443 79.15-56.002c2.862-7.659 10.702-12.261 18.785-11.029 0.928 0.067 1.859 0.067 2.787 0 27.813 0 50.361-22.547 50.361-50.361s-22.547-50.361-50.361-50.361zM218.23 238.165c9.271 0 16.787 7.516 16.787 16.787s-7.516 16.787-16.787 16.787h-117.508c-9.271 0-16.787-7.516-16.787-16.787s7.516-16.787 16.787-16.787zM318.951 238.165c9.271 0 16.787 7.516 16.787 16.787s-7.516 16.787-16.787 16.787h-33.574c-9.271 0-16.787-7.516-16.787-16.787s7.516-16.787 16.787-16.787zM16.787 187.804c0-9.271 7.516-16.787 16.787-16.787h201.443c9.271 0 16.787 7.516 16.787 16.787s-7.516 16.787-16.787 16.787h-201.443c-9.271 0-16.787-7.516-16.787-16.787zM906.492 238.165c9.271 0 16.787 7.516 16.787 16.787s-7.516 16.787-16.787 16.787h-117.508c-9.271 0-16.787-7.516-16.787-16.787s7.516-16.787 16.787-16.787zM1007.213 271.739h-33.574c-9.271 0-16.787-7.516-16.787-16.787s7.516-16.787 16.787-16.787h33.574c9.271 0 16.787 7.516 16.787 16.787s-7.516 16.787-16.787 16.787zM705.049 187.804c0-9.271 7.516-16.787 16.787-16.787h201.443c9.271 0 16.787 7.516 16.787 16.787s-7.516 16.787-16.787 16.787h-201.443c-9.271 0-16.787-7.516-16.787-16.787z" />
<glyph unicode="&#xe904;" glyph-name="taxi" d="M965.75 465.068h7.050c28.275 0 51.2 22.925 51.2 51.2s-22.925 51.2-51.2 51.2h-51.2c-0.142 122.475-99.392 221.725-221.867 221.867v34.133c-0.058 47.108-38.225 85.275-85.333 85.333h-204.8c-47.108-0.058-85.275-38.225-85.333-85.333v-34.133c-122.475-0.142-221.725-99.392-221.867-221.867h-51.2c-28.275 0-51.2-22.925-51.2-51.2s22.925-51.2 51.2-51.2h7.050c-36.067-21.525-58.183-60.4-58.25-102.4v-153.6c0.058-47.108 38.225-85.275 85.333-85.333h17.067v-51.2c0.058-47.108 38.225-85.275 85.333-85.333h68.267c47.108 0.058 85.275 38.225 85.333 85.333v51.2h341.333v-51.2c0.058-47.108 38.225-85.275 85.333-85.333h68.267c47.108 0.058 85.275 38.225 85.333 85.333v51.2h17.067c47.108 0.058 85.275 38.225 85.333 85.333v153.6c-0.067 42-22.183 80.875-58.25 102.4zM972.8 533.334c9.425 0 17.067-7.642 17.067-17.067s-7.642-17.067-17.067-17.067h-51.2v34.133zM358.4 823.468c0 28.275 22.925 51.2 51.2 51.2h204.8c28.275 0 51.2-22.925 51.2-51.2v-34.133h-307.2zM136.533 567.468c0.125 103.633 84.1 187.608 187.733 187.733h375.467c103.633-0.125 187.608-84.1 187.733-187.733v-85.333h-750.933zM34.133 516.268c0 9.425 7.642 17.067 17.067 17.067h51.2v-34.133h-51.2c-9.425 0-17.067 7.642-17.067 17.067zM307.2 72.534c0-28.275-22.925-51.2-51.2-51.2h-68.267c-28.275 0-51.2 22.925-51.2 51.2v51.2h170.667zM887.467 72.534c0-28.275-22.925-51.2-51.2-51.2h-68.267c-28.275 0-51.2 22.925-51.2 51.2v51.2h170.667zM989.867 209.068c0-28.275-22.925-51.2-51.2-51.2h-853.333c-28.275 0-51.2 22.925-51.2 51.2v153.6c0.058 47.108 38.225 85.275 85.333 85.333h785.067c47.108-0.058 85.275-38.225 85.333-85.333zM170.667 499.201h682.667c9.425 0 17.067 7.642 17.067 17.067v51.2c-0.1 94.217-76.45 170.567-170.667 170.667h-375.467c-94.217-0.1-170.567-76.45-170.667-170.667v-51.2c0-9.425 7.642-17.067 17.067-17.067zM187.733 567.468c0.083 75.367 61.167 136.45 136.533 136.533h375.467c75.367-0.083 136.45-61.167 136.533-136.533v-34.133h-648.533zM716.8 311.468h-409.6c-9.425 0-17.067-7.642-17.067-17.067v-68.267c0-9.425 7.642-17.067 17.067-17.067h409.6c9.425 0 17.067 7.642 17.067 17.067v68.267c0 9.425-7.642 17.067-17.067 17.067zM699.733 243.201h-375.467v34.133h375.467zM187.733 328.534c-37.7 0-68.267-30.567-68.267-68.267s30.567-68.267 68.267-68.267 68.267 30.567 68.267 68.267-30.567 68.267-68.267 68.267zM187.733 226.134c-18.85 0-34.133 15.283-34.133 34.133s15.283 34.133 34.133 34.133 34.133-15.283 34.133-34.133-15.283-34.133-34.133-34.133zM836.267 328.534c-37.7 0-68.267-30.567-68.267-68.267s30.567-68.267 68.267-68.267 68.267 30.567 68.267 68.267-30.567 68.267-68.267 68.267zM836.267 226.134c-18.85 0-34.133 15.283-34.133 34.133s15.283 34.133 34.133 34.133 34.133-15.283 34.133-34.133-15.283-34.133-34.133-34.133z" />
<glyph unicode="&#xe905;" glyph-name="bed" d="M924.338 525.759v166.468c0 74.473-52.569 101.852-101.852 101.852h-624.257c-49.283 0-101.852-26.284-101.852-101.852v-166.468c-49.283-5.476-96.376-38.332-96.376-113.899v-129.232c0-21.904 17.523-39.427 39.427-39.427h13.142v-101.852c0-21.904 17.523-39.427 39.427-39.427h37.236c21.904 0 39.427 17.523 39.427 39.427v102.948h686.682v-102.948c0-21.904 17.523-39.427 39.427-39.427h37.236c21.904 0 39.427 17.523 39.427 39.427v102.948h13.142c21.904 0 39.427 17.523 39.427 39.427v128.137c-3.286 75.568-50.379 108.424-99.662 113.899zM133.613 692.228h2.19c0 51.474 33.951 62.426 62.426 62.426h624.257c28.475 0 62.426-10.952 62.426-62.426v-165.373h-29.57v94.186c0 21.904-17.523 39.427-39.427 39.427h-240.941c-21.904 0-39.427-17.523-39.427-39.427v-94.186h-45.998v94.186c0 21.904-17.523 39.427-39.427 39.427h-240.941c-21.904 0-39.427-17.523-39.427-39.427v-94.186h-36.141v165.373zM815.914 621.041v-94.186h-240.941v94.186h240.941zM452.312 621.041v-94.186h-240.941v94.186h240.941zM128.137 141.349h-37.236v102.948h37.236v-102.948zM929.814 141.349h-37.236v102.948h37.236v-102.948zM981.288 282.628h-942.956v58.045h942.956v-58.045zM981.288 380.099h-942.956v31.76c0 65.711 48.188 75.568 75.568 75.568h791.82c28.475 0 75.568-9.857 75.568-75.568v-31.76z" />
<glyph unicode="&#xe906;" glyph-name="pin" horiz-adv-x="718" d="M362.511 735.767c-72.876 0-130.803-57.927-130.803-130.803s57.927-130.803 130.803-130.803 130.803 57.927 130.803 130.803-59.796 130.803-130.803 130.803zM362.511 511.534c-52.321 0-93.431 41.109-93.431 93.431s41.109 93.431 93.431 93.431 93.431-41.109 93.431-93.431-42.978-93.431-93.431-93.431zM611.037 855.359c-67.27 67.27-156.964 104.642-252.263 104.642s-186.861-37.372-254.131-104.642c-125.197-125.197-140.146-360.642-33.635-504.526l287.766-414.832 285.898 414.832c108.38 143.883 91.562 379.328-33.635 504.526zM614.774 373.256l-256-369.985-257.869 369.985c-97.168 128.934-82.219 341.956 29.898 455.942 59.796 59.796 142.015 93.431 226.102 93.431s166.307-33.635 226.102-93.431c115.854-113.985 128.934-327.007 31.766-455.942z" />
<glyph unicode="&#xe907;" glyph-name="mobile" horiz-adv-x="594" d="M526.629 960.001h-456.411c-38.034 0-70.217-32.183-70.217-70.217v-886.491c0-35.109 32.183-67.291 70.217-67.291h456.411c38.034 0 70.217 32.183 70.217 70.217v883.566c-2.926 38.034-32.183 70.217-70.217 70.217zM225.28 910.264h146.286c5.851 0 8.777-2.926 8.777-8.777s-2.926-8.777-8.777-8.777h-146.286c-5.851 0-8.777 5.851-8.777 8.777 0 5.851 2.926 8.777 8.777 8.777zM298.423-28.89c-20.48 0-35.109 14.629-35.109 35.109s14.629 35.109 35.109 35.109 35.109-14.629 35.109-35.109-17.554-35.109-35.109-35.109zM547.109 64.732h-497.371v787.017h497.371v-787.017z" />
<glyph unicode="&#xe908;" glyph-name="google-plus" horiz-adv-x="1334" d="M1024 504.83h-477.957v-159.229h291.603c-43.401-138.342-172.792-238.979-325.781-238.979-188.525 0-341.243 152.718-341.243 341.243s152.718 341.243 341.243 341.243c94.94 0 180.658-38.79 242.776-101.179l115.556 125.593c-92.228 90.6-218.634 146.479-358.332 146.479-282.651 0-511.864-229.213-511.864-511.864s229.213-511.864 511.864-511.864c247.659 0 464.394 175.775 511.864 409.6l0.271 158.957zM1334.319 505.101h-97.924v97.924h-83.819v-97.924h-97.653v-83.548h97.653v-97.924h83.819v97.924h97.924z" />
<glyph unicode="&#xe909;" glyph-name="gift" d="M798.72 761.679c19.435 20.898 31.556 49.319 31.556 80.666 0 65.411-52.245 117.656-115.566 117.656-48.065 0-158.824-71.889-203.128-136.464-45.767 64.575-156.108 134.374-202.292 134.374-63.112 0-115.566-52.245-115.566-117.656 0-30.302 11.285-57.678 29.466-78.367h-223.19v-281.078h61.022v-544.81h902.165v544.601h60.813v281.078c0 0-225.28 0-225.28 0zM714.71 916.324c39.288 0 71.889-32.601 71.889-76.278 0-36.78-25.704-68.336-58.932-75.024h-176.797c-11.285 3.344-14.838 7.314-14.838 9.613 0 37.198 130.612 141.688 178.678 141.688v0zM309.29 916.324c45.767 0 178.678-104.49 178.678-141.688 0-3.344-7.732-7.105-13.375-9.613h-178.051c-33.228 6.687-58.932 38.243-58.932 75.024-0.209 41.587 32.601 76.278 71.68 76.278v0zM381.179-20.322h-276.689v500.924h276.689v-500.924zM381.179 521.98h-337.502v196.023h337.711v-196.023h-0.209zM598.936-20.322h-174.289v738.534h174.289v-738.534zM919.301-20.322h-276.689v500.924h276.689v-500.924zM980.114 521.98h-337.502v196.023h337.711v-196.023h-0.209z" />
<glyph unicode="&#xe90a;" glyph-name="facebook1" horiz-adv-x="554" d="M532.778 960.001h-133.195c-149.178 0-246.144-99.097-246.144-252.537v-116.146h-132.129c-11.721 0-21.311-9.59-21.311-21.311v-168.358c0-11.721 9.59-21.311 21.311-21.311h133.195v-425.157c0-11.721 9.59-21.311 21.311-21.311h174.751c11.721 0 21.311 9.59 21.311 21.311v426.223h156.637c11.721 0 21.311 9.59 21.311 21.311v168.358c0 5.328-2.131 10.656-6.393 14.918s-9.59 6.393-14.918 6.393h-157.702v98.031c0 46.884 11.721 71.392 72.458 71.392h89.507c11.721 0 21.311 9.59 21.311 21.311v155.571c0 11.721-9.59 21.311-21.311 21.311z" />
<glyph unicode="&#xe90b;" glyph-name="check" horiz-adv-x="1394" d="M1373.957 939.575c-27.234 27.234-71.353 27.234-98.587 0l-835.268-835.268-321.089 321.089c-27.234 27.234-71.353 27.234-98.587 0s-27.234-71.353 0-98.587l370.383-370.383c27.234-27.234 71.353-27.234 98.587 0l884.562 884.562c27.234 27.234 27.234 71.353 0 98.587z" />
<glyph unicode="&#xe90c;" glyph-name="star-empty" horiz-adv-x="1070" d="M1069.511 573.157c0 7.585-7.585 7.585-15.17 7.585l-348.919 53.096-151.704 318.578c-7.585 7.585-15.17 7.585-22.756 7.585s-7.585-7.585-7.585-7.585l-151.704-318.578-356.504-53.096c-7.585 0-15.17-7.585-15.17-15.17s0-7.585 7.585-7.585l250.311-242.726-60.681-348.919c0-7.585 0-15.17 7.585-15.17 7.585-7.585 15.17-7.585 22.756 0l310.993 166.874 310.993-166.874c7.585-7.585 22.756 0 22.756 7.585 0 0 0 7.585 0 15.17l-60.681 348.919 250.311 242.726c7.585-7.585 15.17 0 7.585 7.585z" />
<glyph unicode="&#xe90d;" glyph-name="search1" d="M1007.377 15.793l-262.649 262.649c123.013 152.935 123.013 369.039 0 521.974-142.961 179.532-408.935 209.455-588.468 66.494s-209.455-408.935-66.494-588.468 408.935-209.455 588.468-66.494l262.649-262.649c0 0 3.325-3.325 3.325-3.325 19.948-16.623 49.87-16.623 66.494 3.325s16.623 49.87-3.325 66.494zM418.909 215.274c-179.532 0-325.818 146.286-325.818 325.818 0 0 0 0 0 0 0 179.532 146.286 325.818 325.818 325.818s325.818-146.286 325.818-325.818-146.286-325.818-325.818-325.818z" />
<glyph unicode="&#xe90e;" glyph-name="linkedin-circle" d="M513.043 960.001c-283.633 0-513.043-229.409-513.043-513.043s229.409-513.043 513.043-513.043c283.633 0 513.043 229.409 513.043 513.043-2.086 283.633-231.495 513.043-513.043 513.043zM362.884 186.266h-125.132v375.397h125.132v-375.397zM310.745 611.716c-4.171 0-6.257 0-10.428 0v0 0c-35.454-2.086-66.737 25.026-68.823 60.481s25.026 66.737 60.481 68.823c4.171 0 6.257 0 10.428 0 35.454 2.086 66.737-25.026 68.823-60.481s-22.941-66.737-60.481-68.823zM813.36 186.266h-125.132v200.212c0 50.053-18.77 85.507-62.566 85.507-29.198 0-54.224-18.77-64.652-45.882-4.171-10.428-4.171-20.855-4.171-31.283v-210.64h-125.132c0 0 2.086 339.943 0 375.397h125.132v-52.138c22.941 39.625 66.737 64.652 112.619 62.566 81.336 0 143.902-54.224 143.902-168.929v-214.811z" />
<glyph unicode="&#xe90f;" glyph-name="instagram-circle" d="M582.67 516.905c38.279-38.279 38.279-100.341 0-138.62s-100.341-38.279-138.62 0c-38.279 38.279-38.279 100.341 0 138.62s100.341 38.279 138.62 0zM742.452 622.144c-10.428 25.026-29.198 45.882-56.31 56.31-16.684 6.257-35.454 10.428-54.224 10.428-31.283 0-41.711 0-118.876 0s-87.593 0-118.876-2.086c-18.77 0-37.54-4.171-54.224-10.428-27.112-8.342-47.967-29.198-56.31-54.224-6.257-16.684-10.428-35.454-10.428-54.224-2.086-33.369-2.086-41.711-2.086-120.961s0-87.593 2.086-118.876c0-18.77 4.171-37.54 10.428-54.224 10.428-25.026 29.198-45.882 56.31-56.31 16.684-6.257 35.454-10.428 54.224-10.428 31.283-2.086 39.625-2.086 118.876-2.086s87.593 0 118.876 2.086c18.77 0 37.54 4.171 54.224 10.428 25.026 10.428 45.882 29.198 56.31 56.31 6.257 16.684 10.428 35.454 10.428 54.224 2.086 31.283 2.086 39.625 2.086 118.876s0 87.593-2.086 118.876c-2.086 18.77-4.171 37.54-10.428 56.31zM513.043 296.799v0c-83.422 0-150.159 66.737-150.159 150.159s66.737 150.159 150.159 150.159c83.422 0 150.159-66.737 150.159-150.159s-66.737-150.159-150.159-150.159zM669.458 570.005v0c-18.77 0-35.454 16.684-35.454 35.454s16.684 35.454 35.454 35.454 35.454-16.684 35.454-35.454c0-20.855-16.684-35.454-35.454-35.454zM513.043 960.001c-283.633 0-513.043-229.409-513.043-513.043s229.409-513.043 513.043-513.043c283.633 0 513.043 229.409 513.043 513.043-2.086 283.633-231.495 513.043-513.043 513.043zM805.018 325.997c0-25.026-4.171-47.967-14.599-70.908-14.599-39.625-45.882-70.908-85.507-85.507-22.941-8.342-47.967-12.513-70.908-14.599-31.283-2.086-41.711-2.086-120.961-2.086s-89.678 0-120.961 2.086c-25.026 0-47.967 4.171-70.908 14.599-39.625 14.599-70.908 45.882-85.507 85.507-8.342 22.941-12.513 47.967-14.599 70.908-2.086 31.283-2.086 41.711-2.086 120.961s0 89.678 2.086 120.961c0 25.026 4.171 47.967 14.599 70.908 14.599 39.625 45.882 70.908 85.507 85.507 22.941 8.342 47.967 12.513 70.908 14.599 31.283 2.086 41.711 2.086 120.961 2.086s89.678 0 120.961-2.086c25.026 0 47.967-4.171 70.908-14.599 39.625-14.599 70.908-45.882 85.507-85.507 8.342-22.941 12.513-47.967 14.599-70.908 2.086-31.283 2.086-41.711 2.086-120.961s0-89.678-2.086-120.961z" />
<glyph unicode="&#xe910;" glyph-name="group" horiz-adv-x="1168" d="M1165.983 15.598l-47.328 161.345c-2.151 4.303-2.151 6.454-6.454 8.605-27.966 88.202-98.958 154.891-189.311 176.403l-12.908 2.151c-21.513 6.454-43.025-2.151-55.933-17.21-49.479-55.933-109.714-60.235-174.252-60.235s-126.924 4.303-174.252 60.235c-12.908 17.21-36.571 23.664-55.933 17.21l-12.908-4.303c-66.689-17.21-124.773-60.235-161.345-118.319h-139.832c-2.151 0-2.151 0-2.151 2.151s-2.151 2.151-2.151 4.303l27.966 103.261c25.815 79.597 73.143 105.412 167.798 129.076 4.303 0 6.454 2.151 10.756 6.454 8.605-6.454 17.21-12.908 25.815-17.21 2.151-2.151 6.454-2.151 10.756-2.151 8.605 0 15.059 4.303 19.361 12.908 6.454 10.756 2.151 23.664-10.756 30.118 0 0 0 0 0 0-51.63 25.815-86.050 101.109-86.050 178.555 0 68.84 55.933 124.773 124.773 124.773 12.908 0 25.815-2.151 36.571-6.454-12.908-30.118-19.361-62.387-19.361-96.807 0-189.311 114.017-346.353 247.395-346.353 131.227 0 249.546 161.345 249.546 346.353 2.151 137.681-107.563 249.546-245.244 249.546-83.899 0-163.496-43.025-208.672-114.017-19.361 6.454-38.723 10.756-58.084 10.756-58.084 0-111.866-30.118-141.983-79.597-2.151 2.151-4.303 4.303-6.454 4.303-15.059 8.605-34.42 12.908-51.63 12.908-60.235 0-109.714-47.328-111.866-107.563 0 0 0-2.151 0-2.151 0-32.269 8.605-66.689 25.815-94.655-51.63-12.908-96.807-32.269-116.168-101.109l-17.21-64.538c-6.454-10.756-4.303-23.664 2.151-32.269 6.454-10.756 19.361-15.059 30.118-15.059h83.899c-2.151-4.303-4.303-8.605-4.303-12.908l-27.966-103.261c-4.303-15.059 0-30.118 8.605-40.874 10.756-12.908 23.664-21.513 38.723-19.361h116.168c-2.151-8.605-6.454-15.059-8.605-23.664l-45.176-163.496c-4.303-19.361 0-38.723 10.756-53.782s30.118-23.664 49.479-23.664h847.597c19.361 0 36.571 8.605 49.479 23.664 10.756 17.21 15.059 36.571 10.756 55.933zM507.697 802.959c2.151 2.151 2.151 2.151 4.303 4.303s2.151 4.303 2.151 4.303c36.571 64.538 103.261 103.261 176.403 103.261 88.202 0 167.798-58.084 195.765-141.983-38.723-8.605-79.597 8.605-103.261 40.874-6.454 8.605-19.361 12.908-30.118 4.303 0 0 0 0 0 0-4.303-2.151-6.454-6.454-8.605-10.756-2.151-2.151-2.151-2.151-2.151-4.303-30.118-62.387-133.378-88.202-251.697-66.689 0 23.664 6.454 47.328 17.21 66.689zM570.084 684.64c88.202 0 161.345 27.966 197.916 79.597 27.966-23.664 62.387-36.571 98.958-36.571 8.605 0 19.361 2.151 27.966 4.303 0-6.454 2.151-12.908 2.151-19.361 0-161.345-96.807-303.328-204.37-303.328-105.412 0-195.765 131.227-204.37 286.118 23.664-6.454 51.63-10.756 81.748-10.756zM47.328 422.186l15.059 55.933c12.908 45.176 40.874 58.084 96.807 70.992 2.151 0 6.454 2.151 8.605 4.303 4.303-4.303 10.756-8.605 17.21-10.756 2.151-2.151 6.454-2.151 10.756-2.151 8.605 0 15.059 4.303 19.361 12.908 4.303 10.756 2.151 23.664-8.605 30.118-27.966 15.059-49.479 58.084-49.479 103.261 0 36.571 30.118 66.689 66.689 66.689 0 0 0 0 2.151 0 10.756 0 21.513-2.151 32.269-8.605 2.151-2.151 6.454-2.151 8.605-2.151-6.454-17.21-8.605-34.42-8.605-53.782 0-60.235 19.361-118.319 53.782-167.798-66.689-17.21-124.773-38.723-163.496-98.958h-101.109zM1120.807-12.369c-4.303-4.303-8.605-6.454-15.059-6.454h-847.597c-6.454 0-10.756 2.151-15.059 6.454-2.151 4.303-4.303 10.756-4.303 15.059l47.328 161.345c21.513 77.445 81.748 135.529 159.193 154.891l12.908 4.303c4.303 0 8.605 0 12.908-4.303 60.235-68.84 135.529-75.294 208.672-75.294s148.437 6.454 208.672 75.294c4.303 4.303 8.605 4.303 12.908 4.303l12.908-4.303c77.445-19.361 137.681-79.597 159.193-154.891l19.361-68.84c0-2.151 2.151-6.454 4.303-8.605l23.664-83.899c4.303-4.303 2.151-10.756 0-15.059z" />
<glyph unicode="&#xe911;" glyph-name="flash" horiz-adv-x="580" d="M579.965 611.116c-4.531 4.531-9.062 9.062-13.593 9.062h-203.894l199.363 317.168c4.531 9.062 4.531 18.124-4.531 22.655-4.531 0-9.062 0-13.593 0h-271.858c-4.531 0-13.593-4.531-13.593-9.062l-258.265-512c-4.531-9.062 0-18.124 9.062-22.655 4.531 0 4.531 0 9.062 0h176.708l-194.832-457.628c-4.531-9.062 0-18.124 9.062-22.655s13.593 0 18.124 4.531l543.717 647.929c9.062 9.062 9.062 13.593 9.062 22.655z" />
<glyph unicode="&#xe912;" glyph-name="facebook-circle" d="M513.043 960.001c-283.633 0-513.043-229.409-513.043-513.043s229.409-513.043 513.043-513.043c283.633 0 513.043 229.409 513.043 513.043-2.086 283.633-231.495 513.043-513.043 513.043zM650.688 645.085h-72.994c-37.54 0-45.882-25.026-45.882-50.053v-50.053h112.619l-14.599-98.020h-98.020v-296.147h-98.020v296.147h-58.395v98.020h60.481v60.481c0 79.251 22.941 137.646 110.534 137.646h104.277v-98.020z" />
<glyph unicode="&#xe913;" glyph-name="close1" horiz-adv-x="988" d="M583.249 472.855l371.159 487.146h-178.951l-281.683-387.728-278.369 387.728h-192.207l377.786-493.773-400.984-530.227h178.951l311.508 427.495 304.88-427.495h192.207z" />
<glyph unicode="&#xe914;" glyph-name="twitter-circle" d="M513.043 960.001c-283.633 0-513.043-229.409-513.043-513.043s229.409-513.043 513.043-513.043c283.633 0 513.043 229.409 513.043 513.043-2.086 283.633-231.495 513.043-513.043 513.043zM732.024 565.834c0-4.171 0-10.428 0-14.599 0-156.415-114.705-337.857-321.173-337.857-62.566 0-123.047 18.77-173.1 54.224 8.342-2.086 18.77-2.086 27.112-2.086 52.138 0 102.191 18.77 139.731 52.138-50.053 2.086-91.764 35.454-106.363 83.422 16.684-4.171 35.454-2.086 52.138 2.086-54.224 14.599-91.764 62.566-91.764 118.876v0c14.599-10.428 33.369-14.599 52.138-16.684-50.053 37.54-64.652 106.363-35.454 162.672 54.224-75.079 139.731-123.047 233.58-129.303-2.086 8.342-2.086 18.77-2.086 27.112-2.086 62.566 47.967 116.79 110.534 118.876 0 0 2.086 0 2.086 0 31.283 0 62.566-14.599 83.422-39.625 25.026 4.171 50.053 14.599 70.908 27.112-8.342-27.112-25.026-50.053-50.053-64.652 22.941 2.086 43.796 8.342 64.652 18.77-14.599-25.026-33.369-43.796-56.31-60.481z" />
<glyph unicode="&#xe915;" glyph-name="youtube-circle" d="M448.391 351.023l166.843 95.935-166.843 95.935zM513.043 960.001c-283.633 0-513.043-229.409-513.043-513.043s229.409-513.043 513.043-513.043c283.633 0 513.043 229.409 513.043 513.043-2.086 283.633-231.495 513.043-513.043 513.043zM819.617 292.628c-8.342-27.112-29.198-47.967-56.31-56.31-50.053-12.513-250.265-12.513-250.265-12.513s-200.212 0-250.265 14.599c-27.112 8.342-47.967 29.198-56.31 56.31-8.342 50.053-12.513 102.191-12.513 154.33s4.171 102.191 12.513 154.33c8.342 27.112 29.198 50.053 56.31 56.31 50.053 12.513 250.265 12.513 250.265 12.513s200.212 0 250.265-14.599c27.112-8.342 47.967-29.198 56.31-56.31 8.342-50.053 14.599-102.191 12.513-154.33 0-52.138-4.171-102.191-12.513-154.33z" />
<glyph unicode="&#xe916;" glyph-name="arrow-d" horiz-adv-x="952" d="M808.96 960.001l-327.68-890.88-337.92 890.88h-143.36l409.6-1024h133.12l409.6 1024z" />
<glyph unicode="&#xe917;" glyph-name="watch" d="M511.789 960.001c141.274 0 269.184-57.447 362.036-149.927 92.48-92.877 149.927-220.787 149.927-362.061s-57.447-269.184-149.927-362.061c-92.877-92.48-220.762-149.927-362.036-149.927s-269.159 57.447-361.639 149.927c-92.877 92.877-149.952 220.762-149.952 362.061 0 141.274 57.050 269.184 149.927 362.061 92.505 92.48 220.39 149.927 361.664 149.927v0zM772.717 475.956c15.347 0 27.546-12.595 27.546-27.942s-12.198-27.942-27.546-27.942h-260.928c-10.24 0-19.289 5.901-24 14.157l-0.397 0.397-0.397 0.793v0.397l-0.793 1.587v0.397l-0.397 0.793-0.397 0.397v0.793l-0.397 0.793v0.397l-0.397 0.793v1.587l-0.397 0.397v337.59c0 15.347 12.198 27.546 27.546 27.546s27.942-12.198 27.942-27.546v-305.383h233.010zM834.478 770.702c-82.637 82.637-196.762 133.414-322.689 133.414s-240.052-50.752-322.689-133.414c-82.24-82.637-133.414-196.762-133.414-322.689s51.149-240.052 133.414-322.713c82.637-82.637 196.762-133.414 322.689-133.414s240.052 50.777 322.689 133.414c82.637 82.637 133.811 196.762 133.811 322.713 0 125.927-51.149 240.052-133.811 322.689v0z" />
<glyph unicode="&#xe918;" glyph-name="twitter" d="M1024 733.601c-37.6-16.8-78.2-28-120.6-33 43.4 26 76.6 67.2 92.4 116.2-40.6-24-85.6-41.6-133.4-51-38.4 40.8-93 66.2-153.4 66.2-116 0-210-94-210-210 0-16.4 1.8-32.4 5.4-47.8-174.6 8.8-329.4 92.4-433 219.6-18-31-28.4-67.2-28.4-105.6 0-72.8 37-137.2 93.4-174.8-34.4 1-66.8 10.6-95.2 26.2 0-0.8 0-1.8 0-2.6 0-101.8 72.4-186.8 168.6-206-17.6-4.8-36.2-7.4-55.4-7.4-13.6 0-26.6 1.4-39.6 3.8 26.8-83.4 104.4-144.2 196.2-146-72-56.4-162.4-90-261-90-17 0-33.6 1-50.2 3 93.2-59.8 203.6-94.4 322.2-94.4 386.4 0 597.8 320.2 597.8 597.8 0 9.2-0.2 18.2-0.6 27.2 41 29.4 76.6 66.4 104.8 108.6z" />
<glyph unicode="&#xe919;" glyph-name="arrow-d2" horiz-adv-x="1734" d="M1701.161 910.453c-66.065 66.065-165.161 66.065-231.226 0l-594.581-594.581-594.581 594.581c-66.065 66.065-165.161 66.065-231.226 0s-66.065-165.161 0-231.226l693.677-693.677c33.032-49.548 82.581-49.548 132.129-49.548s82.581 16.516 115.613 49.548l693.677 693.677c66.065 66.065 66.065 165.161 16.516 231.226z" />
<glyph unicode="&#xe91a;" glyph-name="cancel-music" d="M633.703 448.001l365.094 365.094c33.607 33.607 33.607 88.095 0 121.698-33.607 33.607-88.091 33.607-121.698 0l-365.099-365.099-365.099 365.104c-33.607 33.607-88.091 33.607-121.698 0-33.603-33.607-33.603-88.095 0-121.698l365.099-365.094-365.099-365.099c-33.603-33.607-33.603-88.095 0-121.698 33.607-33.607 88.091-33.607 121.698 0l365.099 365.099 365.099-365.099c33.603-33.607 88.091-33.607 121.698 0s33.607 88.091 0 121.698l-365.094 365.094z" />
<glyph unicode="&#xe91b;" glyph-name="next" d="M774.115 468.414l-483.056 483.056c-11.374 11.374-29.614 11.374-40.988 0s-11.374-29.614 0-40.988l462.455-462.455-462.455-462.455c-11.374-11.374-11.374-29.614 0-40.988 5.58-5.58 13.090-8.584 20.387-8.584s14.807 2.79 20.387 8.584l483.056 483.056c11.374 11.159 11.374 29.614 0.215 40.773z" />
<glyph unicode="&#xe91c;" glyph-name="telephone-handle-silhouette" d="M1021.786 166.588c-2.896 8.727-21.323 21.583-55.268 38.538-9.196 5.344-22.299 12.606-39.254 21.82-16.97 9.213-32.373 17.704-46.182 25.463-13.837 7.756-26.8 15.271-38.912 22.533-1.936 1.454-7.996 5.691-18.177 12.736-10.192 7.025-18.786 12.24-25.829 15.64-7.028 3.38-13.941 5.082-20.73 5.082-9.695 0-21.805-6.913-36.345-20.722-14.54-13.827-27.877-28.845-39.992-45.102-12.117-16.249-24.968-31.268-38.53-45.087-13.582-13.824-24.742-20.73-33.458-20.73-4.376 0-9.832 1.22-16.371 3.627-6.536 2.422-11.509 4.498-14.922 6.172-3.383 1.709-9.188 5.092-17.436 10.199-8.263 5.092-12.859 7.881-13.827 8.368-66.42 36.857-123.385 79.039-170.904 126.539-47.504 47.527-89.692 104.487-126.539 170.915-0.484 0.971-3.278 5.579-8.365 13.816-5.095 8.246-8.49 14.056-10.187 17.459-1.696 3.39-3.757 8.363-6.177 14.907s-3.635 11.995-3.635 16.364c0 8.722 6.911 19.879 20.73 33.456 13.816 13.569 28.85 26.423 45.087 38.535 16.249 12.112 31.268 25.45 45.089 39.99 13.816 14.547 20.725 26.662 20.725 36.357 0 6.783-1.696 13.699-5.087 20.727-3.393 7.043-8.605 15.638-15.638 25.824-7.036 10.181-11.277 16.236-12.734 18.185-7.265 12.112-14.772 25.080-22.538 38.899-7.767 13.816-16.244 29.217-25.46 46.185-9.208 16.96-16.476 30.055-21.815 39.266-16.96 33.932-29.806 52.364-38.535 55.263-3.396 1.454-8.49 2.188-15.271 2.188-13.098 0-30.185-2.42-51.274-7.275-21.097-4.847-37.697-9.932-49.82-15.273-24.242-10.176-49.937-39.75-77.091-88.711-24.726-45.566-37.088-90.665-37.088-135.265 0-13.080 0.848-25.806 2.545-38.181 1.696-12.362 4.728-26.303 9.096-41.821 4.361-15.513 7.879-27.037 10.538-34.541 2.662-7.509 7.632-20.962 14.907-40.362 7.265-19.395 11.633-31.268 13.088-35.631 16.967-47.517 37.088-89.937 60.358-127.272 38.286-62.057 90.533-126.19 156.711-192.373 66.181-66.178 130.301-118.423 192.363-156.724 37.33-23.267 79.765-43.385 127.275-60.365 4.366-1.447 16.239-5.805 35.626-13.096 19.395-7.27 32.852-12.24 40.362-14.907 7.512-2.67 19.038-6.19 34.539-10.558 15.533-4.369 29.462-7.4 41.824-9.109 12.37-1.674 25.098-2.537 38.181-2.537 44.598 0 89.7 12.37 135.273 37.093 48.956 27.144 78.522 52.843 88.704 77.104 5.354 12.11 10.426 28.715 15.273 49.812 4.863 21.086 7.278 38.171 7.278 51.266 0.015 6.809-0.716 11.891-2.178 15.314z" />
<glyph unicode="&#xe91d;" glyph-name="text-document" d="M711.732 960.001h-515.382c-34.605 0-62.784-28.199-62.784-62.797v-898.394c0-34.651 28.179-62.806 62.784-62.806h631.295c34.636 0 62.789 28.155 62.789 62.806v767.018l-178.703 194.174zM726.55 866.032l78.328-85.128h-78.328v85.128zM837.703-1.193c0-5.531-4.528-10.073-10.086-10.073h-631.267c-5.549 0-10.051 4.541-10.051 10.073v898.396c0 5.544 4.502 10.038 10.051 10.038h477.441v-152.715c0-14.54 11.844-26.328 26.393-26.328h137.52v-729.392zM279.321 679.535h447.792c10.908 0 19.756-8.848 19.756-19.756s-8.848-19.756-19.756-19.756h-447.792c-10.906 0-19.756 8.848-19.756 19.756 0 10.906 8.85 19.756 19.756 19.756zM746.87 527.018c0-10.906-8.848-19.756-19.756-19.756h-447.792c-10.906 0-19.756 8.848-19.756 19.756s8.85 19.756 19.756 19.756h447.792c10.908 0 19.756-8.85 19.756-19.756zM746.87 398.606c0-10.908-8.848-19.756-19.756-19.756h-447.792c-10.906 0-19.756 8.848-19.756 19.756s8.85 19.756 19.756 19.756h447.792c10.908 0 19.756-8.848 19.756-19.756zM746.87 268.006c0-10.908-8.848-19.756-19.756-19.756h-447.792c-10.906 0-19.756 8.848-19.756 19.756s8.85 19.756 19.756 19.756h447.792c10.908 0 19.756-8.848 19.756-19.756z" />
<glyph unicode="&#xe91e;" glyph-name="checked" d="M511.999 960.001c-282.756 0-511.999-229.233-511.999-511.999s229.243-511.999 511.999-511.999c282.787 0 511.999 229.233 511.999 511.999s-229.221 511.999-511.999 511.999zM418.077 184.998l-225.444 225.434 75.142 75.142 150.302-150.293 338.145 338.155 75.142-75.142-413.287-413.296z" />
<glyph unicode="&#xe91f;" glyph-name="uniE91F" d="M512 958.001c-282.773 0-512-229.031-512-511.547 0-282.523 229.227-511.547 512-511.547s512 229.023 512 511.547c0 282.516-229.227 511.547-512 511.547zM112 446.454c0 89.922 29.734 172.906 79.906 239.688l559.992-559.5c-66.836-50.125-149.891-79.836-239.898-79.836-220.914 0-400 178.93-400 399.648zM831.227 205.634l-560.258 559.766c67.031 50.648 150.516 80.703 241.031 80.703 220.914 0 400-178.93 400-399.648 0-90.438-30.078-173.844-80.773-240.82z" />
<glyph unicode="&#xe920;" glyph-name="uniE920" d="M512 958.001c-10.141 0-20.219-0.297-30.211-0.883 268.898-15.414 482.211-238.141 482.211-510.664 0-272.531-213.313-495.25-482.211-510.664 9.992-0.586 20.070-0.883 30.211-0.883 282.773 0 512 229.023 512 511.547 0 282.516-229.227 511.547-512 511.547z" />
<glyph unicode="&#xe921;" glyph-name="right-arrow" d="M689.55 797.182c-13.95 14.438-37.168 14.438-51.606 0-13.95-13.95-13.95-37.168 0-51.086l261.674-261.674h-863.49c-20.129-0.033-36.128-16.032-36.128-36.16s15.999-36.648 36.128-36.648h863.49l-261.674-261.187c-13.95-14.438-13.95-37.689 0-51.606 14.438-14.438 37.689-14.438 51.606 0l323.622 323.622c14.438 13.95 14.438 37.168 0 51.086l-323.622 323.654z" />
<glyph unicode="&#xe922;" glyph-name="left-arrow" d="M982.636 489.365h-941.272c-22.844 0-41.364-18.52-41.364-41.364 0-22.846 18.52-41.364 41.364-41.364h941.272c22.846 0 41.364 18.518 41.364 41.364 0 22.844-18.518 41.364-41.364 41.364zM99.864 448.001l323.726 323.728c16.154 16.154 16.154 42.344 0 58.498-16.154 16.152-42.344 16.152-58.498 0l-352.976-352.976c-16.154-16.154-16.154-42.344 0-58.498l352.976-352.976c8.076-8.078 18.664-12.116 29.25-12.116s21.174 4.038 29.25 12.116c16.154 16.154 16.154 42.344 0 58.498l-323.728 323.726z" />
<glyph unicode="&#xe923;" glyph-name="download-1" d="M436.907 939.065c-6.372-1.365-30.492-7.282-54.158-13.653-180.679-46.876-322.219-199.339-357.262-384.114-9.102-45.966-9.102-135.168-0.91-182.044 33.678-187.506 172.487-337.692 360.448-390.030 41.415-11.833 51.428-12.743 126.976-12.743 75.093 0 85.561 1.365 126.521 12.743 86.471 23.666 152.007 61.44 217.543 124.7 66.446 63.716 109.682 137.444 135.168 227.556 10.923 40.505 12.288 51.428 12.288 124.245 0 69.177-1.365 85.106-10.923 120.149-23.666 90.112-60.985 157.468-123.79 223.46-65.536 68.267-137.444 111.502-227.556 136.988-36.864 10.468-53.248 12.288-117.874 13.198-41.415 0.91-80.1 0.455-86.471-0.455zM605.298 837.12c135.623-32.313 245.305-136.078 288.996-273.067 18.204-55.979 21.39-147.911 7.282-207.076-35.044-146.091-152.917-263.964-298.553-298.553-35.044-8.192-50.517-9.102-104.676-7.282-75.548 2.276-101.945 8.647-163.84 39.14-105.586 52.338-180.679 145.18-209.806 258.958-15.019 59.164-15.929 140.629-2.276 194.332 20.48 80.1 72.363 161.564 136.078 214.357 37.319 30.948 109.227 66.901 157.924 78.734 51.428 12.743 136.533 12.743 188.871 0.455zM394.581 587.719c-105.586-106.041-114.233-117.874-97.394-132.437 3.641-2.731 34.588-5.461 78.734-5.916l72.363-1.365 2.276-123.79c1.365-67.812 4.096-125.156 5.916-127.431 5.006-5.006 106.041-5.006 111.047 0 1.82 2.276 4.551 59.62 5.916 127.431l2.276 123.79 72.363 1.365c116.964 1.82 116.508 2.276-18.66 138.354-90.112 90.112-105.131 103.765-117.419 103.765s-27.307-13.653-117.419-103.765z" />
<glyph unicode="&#xe924;" glyph-name="guitar" d="M28.242 606.399c7.773-3.742 16.57-5.633 25.984-5.633 5.391 0 10.984 0.617 16.711 1.867 34.383 7.5 53.773 33.922 47.164 64.258 0 0.008 0 0.008 0 0.008l-37.82 173.39 159.015 34.687 28.031-128.5c-8.953 1.695-19.031 1.461-29.898-0.906-35.148-7.664-54.367-33.016-47.812-63.070 5.523-25.328 26.398-40.625 53.148-40.625 5.289 0 10.82 0.602 16.5 1.836 34.383 7.5 53.781 33.93 47.164 64.266 0 0 0 0 0 0.008l-50.398 231.062c-3.125 14.344-17.352 23.469-31.711 20.336l-165.586-36.117c-6.945-1.516-12.883-5.641-16.727-11.617-3.852-5.984-5.133-13.109-3.617-20.055l40.609-186.203c-8.953 1.695-19.039 1.469-29.898-0.898-15.711-3.43-28.602-10.437-37.266-20.258-10.281-11.656-14.031-26.859-10.547-42.812 3.461-15.867 13.031-28.305 26.953-35.023zM252.867 673.024c-6.82-1.484-29.445-4.75-33.937 15.867-3.977 18.219 13.891 24.969 24.898 27.367 3.695 0.805 7.664 1.367 11.531 1.367 9.836 0 19.047-3.617 21.758-16.031v-0.008c4.5-20.609-17.422-27.070-24.25-28.562zM227.437 929.359l5.469-25.070-159.015-34.687-5.469 25.062zM34.336 664.383c4.352 4.93 11.867 8.766 21.164 10.797 3.695 0.805 7.664 1.367 11.531 1.367 9.836 0 19.047-3.625 21.758-16.031v-0.008c4.492-20.617-17.422-27.078-24.25-28.562-8.961-1.953-17.227-1.43-23.273 1.484-5.664 2.727-9.156 7.437-10.664 14.383-1.477 6.75-0.289 12.016 3.734 16.57zM1021.725 209.516c-2.867 6.516-8.102 11.516-14.727 14.094l-157.992 61.391c-13.695 5.32-29.148-1.492-34.469-15.18l-69.055-177.758c-6.625 6.523-15.18 11.945-25.367 15.906-14.992 5.82-29.602 7.102-42.258 3.703-15.008-4.031-26.523-14.641-32.437-29.859-5.883-15.141-4.773-30.797 3.117-44.078 6.93-11.664 18.516-20.914 33.508-26.734 9.023-3.508 17.883-5.187 26.234-5.187 22.016 0 40.43 11.711 48.586 32.695l64.266 165.422 151.703-58.945-47.68-122.726c-6.625 6.516-15.172 11.937-25.367 15.898-33.531 13.031-63.555 2.516-74.695-26.156-5.883-15.141-4.773-30.789 3.125-44.078 6.93-11.664 18.516-20.906 33.5-26.734 9.023-3.5 17.891-5.187 26.242-5.187 22.016 0 40.43 11.719 48.578 32.703l85.641 220.437c2.57 6.633 2.414 13.867-0.453 20.375zM692.905 38.97c-8.555 3.32-15.156 8.32-18.578 14.086-3.211 5.414-3.523 11.266-0.945 17.891 2.5 6.445 6.398 10.172 12.266 11.75 2.055 0.555 4.328 0.828 6.758 0.828 5.070 0 10.852-1.187 16.844-3.523 8.758-3.398 15.43-8.25 18.797-13.664 3.125-5.023 3.391-10.414 0.852-16.961-7.641-19.664-29.477-12.937-35.992-10.406zM831.991 231.899l9.289 23.914 151.711-58.945-9.289-23.914zM872.577-30.843c-8.555 3.32-15.148 8.328-18.57 14.094-3.219 5.406-3.523 11.258-0.953 17.883 3.781 9.727 11.273 12.68 18.984 12.68 6.062 0 12.266-1.828 16.883-3.625 8.758-3.398 15.43-8.25 18.797-13.664 3.125-5.023 3.391-10.414 0.852-16.953-7.641-19.672-29.477-12.945-35.992-10.414zM440.539 4.603c-92.234-67.031-232.601-45.102-326.515 51.008-54.773 56.055-85.391 129.617-83.976 201.82 1.125 57.695 23.031 109.609 61.68 146.187 27.523 26.016 62.625 43.562 101.516 50.75 52.844 9.758 99.633 35.273 135.305 73.781 5.633 6.078 5.273 15.57-0.805 21.195-6.078 5.641-15.562 5.273-21.195-0.805-31.258-33.734-72.312-56.094-118.75-64.672-44.594-8.234-84.937-28.445-116.687-58.453-44.539-42.156-69.773-101.601-71.055-167.398-1.57-80.195 32.156-161.609 92.516-223.375 63.125-64.601 145.633-98.641 224.054-98.641 51.086 0 100.453 14.461 141.547 44.328 6.703 4.867 8.187 14.25 3.32 20.953-4.875 6.703-14.258 8.187-20.953 3.32zM699.577 306.227c31.352 31.359 46.336 71.758 43.312 116.836-2.391 35.773-15.969 73.781-39.352 110.586l95.726 95.726c5.859 5.859 5.859 15.359 0.008 21.211-5.859 5.859-15.359 5.859-21.211 0l-265.422-265.414c-5.711 14.156-14.25 27.156-25.367 38.273s-24.109 19.664-38.266 25.367l312.422 312.445 63.648-63.648-1.773-1.773c-5.859-5.852-5.859-15.352 0-21.211 2.93-2.93 6.766-4.391 10.609-4.391 3.836 0 7.68 1.461 10.602 4.391l3.797 3.789c2.383-0.75 4.875-1.148 7.406-1.148 0.258 0 0.516 0.008 0.773 0.016 6.836 0.211 13.344 3.281 17.859 8.414l15.922 18.078 17.070-17.070c2.93-2.93 6.773-4.398 10.609-4.398s7.68 1.469 10.609 4.398c5.859 5.859 5.859 15.352 0 21.211l-18.422 18.422 25.055 28.453 17.828-17.828c2.93-2.93 6.773-4.391 10.609-4.391s7.68 1.461 10.609 4.391c5.859 5.859 5.859 15.359 0 21.219l-19.18 19.172 24.867 28.234 12.914-12.922c2.93-2.93 6.773-4.391 10.609-4.391s7.68 1.461 10.609 4.391c5.859 5.859 5.859 15.359 0 21.219l-14.273 14.266 18 20.437c8.641 9.812 8.172 24.742-1.070 33.992l-70.148 70.148c-9.25 9.25-24.18 9.719-33.992 1.078l-20.445-18.008-14.281 14.273c-5.859 5.852-15.359 5.852-21.211-0.008-5.859-5.859-5.852-15.359 0.008-21.219l12.922-12.914-28.227-24.852-19.352 19.344c-5.852 5.859-15.352 5.859-21.211 0-5.859-5.852-5.859-15.352 0-21.211l18.008-18-28.461-25.062-18.414 18.414c-5.852 5.859-15.352 5.859-21.211 0s-5.859-15.359 0-21.211l17.070-17.070-18.086-15.922c-5.125-4.516-8.187-11.023-8.406-17.859-0.086-2.695 0.289-5.367 1.055-7.914l-144.695-144.703c-84.328 54.187-169.25 54.508-223.758-0.008-14.031-14-24.773-27.672-32.844-41.789-4.117-7.195-1.617-16.359 5.57-20.469 2.352-1.344 4.906-1.984 7.437-1.984 5.203 0 10.266 2.719 13.031 7.562 6.734 11.766 15.883 23.359 28.008 35.461 59.625 59.633 141.312 23.203 180.75-0.578l-161.289-161.297c-2.844 0.211-5.703 0.352-8.586 0.352-30.711 0-59.594-11.961-81.312-33.687-21.727-21.719-33.687-50.602-33.687-81.32s11.961-59.601 33.687-81.32c21.719-21.719 50.602-33.687 81.312-33.687 30.719 0 59.601 11.969 81.32 33.687s33.68 50.602 33.68 81.32c0 2.883-0.141 5.742-0.352 8.586l161.101 161.101c23.531-39.648 59.031-122-3.352-184.383-9.82-9.844-21.039-18.25-33.336-24.984-68.203-37.305-113.32-98.703-127.031-172.883-5.711-30.969-17.648-58.969-35.492-83.234-4.906-6.68-3.477-16.070 3.195-20.977 2.68-1.969 5.789-2.914 8.875-2.914 4.609 0 9.156 2.117 12.094 6.117 20.555 27.953 34.289 60.101 40.828 95.562 12.039 65.133 51.789 119.117 111.93 152.015 14.805 8.109 28.32 18.234 40.156 30.094zM928.772 928.094l63.305-63.305-136.617-155.148-81.82 81.836zM466.062 282.024c-16.055-16.055-37.398-24.898-60.101-24.898s-44.047 8.844-60.101 24.898c-16.055 16.055-24.898 37.398-24.898 60.101 0 22.711 8.844 44.055 24.898 60.109 16.047 16.055 37.398 24.898 60.101 24.898s44.047-8.844 60.101-24.898c16.047-16.055 24.891-37.398 24.891-60.109 0-22.703-8.836-44.047-24.891-60.101zM127.609 290.368c-20.242-20.242-20.242-53.187 0-73.43l153.164-153.172c10.125-10.117 23.422-15.18 36.711-15.18 13.297 0 26.594 5.062 36.719 15.187 20.242 20.242 20.242 53.18 0 73.43l-153.164 153.172c-9.805 9.805-22.844 15.203-36.711 15.203s-26.906-5.406-36.719-15.211zM332.984 115.985c8.547-8.547 8.547-22.453 0-31-8.539-8.547-22.445-8.555-31 0l-153.156 153.164c-8.547 8.547-8.547 22.461 0 31.008 4.133 4.133 9.641 6.422 15.5 6.422 5.852 0 11.359-2.281 15.5-6.422zM753.991 643.328c3.836 0 7.68 1.461 10.609 4.391 5.852 5.859 5.852 15.359 0 21.211l-32 32.008c-5.859 5.852-15.359 5.852-21.219 0-5.859-5.859-5.859-15.359 0-21.219l32-32c2.93-2.93 6.773-4.391 10.609-4.391zM709.655 598.993c3.844 0 7.68 1.461 10.609 4.391 5.859 5.859 5.859 15.359 0 21.211l-32 32.008c-5.859 5.852-15.352 5.852-21.211 0-5.859-5.859-5.859-15.359 0-21.219l32-32c2.93-2.93 6.766-4.391 10.602-4.391zM665.327 554.657c3.836 0 7.672 1.461 10.602 4.391 5.859 5.859 5.859 15.359 0 21.219l-32 32c-5.859 5.859-15.352 5.859-21.211 0s-5.859-15.359 0-21.211l32-32.008c2.93-2.93 6.766-4.391 10.609-4.391zM620.992 510.321c3.836 0 7.68 1.461 10.609 4.391 5.859 5.859 5.859 15.359 0 21.219l-32 32c-5.859 5.859-15.359 5.859-21.211 0-5.859-5.859-5.859-15.359 0-21.211l32-32.008c2.93-2.93 6.766-4.391 10.602-4.391zM534.054 523.594c-5.859-5.859-5.859-15.359 0-21.219l32-32c2.93-2.93 6.766-4.391 10.609-4.391 3.836 0 7.672 1.461 10.602 4.391 5.859 5.859 5.859 15.359 0 21.219l-32 32c-5.859 5.859-15.352 5.859-21.211 0zM835.241 806.914c-5.859 5.859-15.352 5.859-21.211 0s-5.859-15.352 0-21.211c5.859-5.859 15.352-5.859 21.211 0s5.859 15.352 0 21.211zM871.218 771.25c-5.859 5.859-15.359 5.859-21.219 0-5.852-5.852-5.852-15.352 0-21.211 5.859-5.859 15.359-5.859 21.219 0 5.852 5.859 5.852 15.359 0 21.211zM880.257 852c-5.859 5.859-15.359 5.859-21.211 0-5.859-5.859-5.859-15.359 0-21.211 5.852-5.859 15.352-5.859 21.211 0 5.859 5.852 5.859 15.352 0 21.211zM916.257 816.297c-5.859 5.859-15.359 5.859-21.211 0-5.859-5.859-5.859-15.359 0-21.211 5.852-5.859 15.352-5.859 21.211 0 5.859 5.852 5.859 15.352 0 21.211zM925.296 897.039c-5.859 5.859-15.352 5.859-21.211 0s-5.859-15.352 0-21.211c5.859-5.859 15.352-5.859 21.211 0s5.859 15.352 0 21.211zM961.288 861.344c-5.859 5.859-15.359 5.859-21.211 0-5.859-5.852-5.859-15.352 0-21.211 5.852-5.859 15.352-5.859 21.211 0s5.859 15.359 0 21.211z" />
<glyph unicode="&#xe925;" glyph-name="hand" d="M470.587 265.486c3.628 3.623 5.872 8.63 5.872 14.161 0 11.053-8.96 20.013-20.013 20.013s-20.013-8.96-20.013-20.013c0-5.531 2.244-10.539 5.871-14.161v0c3.623-3.609 8.622-5.841 14.141-5.841s10.518 2.232 14.142 5.842l-0.001-0.001zM375.889 740.066c0-121.466 98.468-219.934 219.934-219.934s219.934 98.468 219.934 219.934c0 121.457-98.453 219.919-219.907 219.934h-0.002c-121.418-0.133-219.813-98.518-219.96-219.92v-0.014zM775.783 740.066c0-0.008 0-0.017 0-0.026 0-99.389-80.571-179.96-179.96-179.96s-179.96 80.571-179.96 179.96c0 99.389 80.571 179.96 179.96 179.96v0c99.333-0.118 179.827-80.604 179.96-179.921v-0.013zM230.303-58.089c3.623-3.653 8.644-5.915 14.193-5.915 5.472 0 10.43 2.199 14.039 5.761l96.925 95.5c10.802 10.912 17.475 25.929 17.475 42.504 0 6.992-1.188 13.708-3.372 19.954l0.129-0.424 20.739 20.117c10.721 10.408 25.367 16.824 41.512 16.824 0.043 0 0.085 0 0.128 0h265.915c0.116 0 0.253 0 0.391 0 48.715 0 92.885 19.457 125.163 51.024l-0.033-0.032c1.4 1.348-10.551-12.728 181.464 216.616 11.065 13.608 17.766 31.151 17.766 50.26 0 44.168-35.805 79.974-79.974 79.974-23.594 0-44.801-10.217-59.439-26.468l-0.064-0.072-117.977-121.27c-14.807 18.165-37.159 29.691-62.205 29.76h-222.953c-29.401 12.638-63.623 19.988-99.562 19.988-0.195 0-0.389 0-0.584-0.001h0.030c-2.64 0.101-5.74 0.158-8.854 0.158-92.829 0-173.716-51.129-216.037-126.762l-0.643-1.251c-3.357 0.671-7.215 1.055-11.164 1.055-16.542 0-31.511-6.737-42.312-17.616l-0.003-0.004-95.165-95.32c-3.599-3.614-5.824-8.598-5.824-14.102s2.225-10.488 5.824-14.103l-0.001 0.001zM379.881 396.166c0.174 0.001 0.381 0.001 0.587 0.001 31.675 0 61.773-6.747 88.938-18.882l-1.385 0.553c2.358-1.062 5.111-1.683 8.009-1.685h227.064c0.303 0.008 0.66 0.013 1.018 0.013 22.091 0 40-17.909 40-40s-17.909-40-40-40c-0.358 0-0.715 0.005-1.071 0.014l0.053-0.001h-163.24c-11.038 0-19.987-8.948-19.987-19.987s8.948-19.987 19.987-19.987h163.136c0.040 0 0.086 0 0.133 0 44.097 0 79.844 35.747 79.844 79.844 0 3.73-0.256 7.4-0.751 10.993l0.047-0.417c114.063 117.329 130.239 133.817 130.913 134.62 7.389 8.833 18.415 14.412 30.745 14.412 22.091 0 40-17.909 40-40 0-9.987-3.66-19.119-9.712-26.129l0.043 0.051-179.338-214.386c-24.989-24.063-59.024-38.886-96.521-38.886-0.143 0-0.286 0-0.428 0.001h-265.771c-0.063 0-0.137 0-0.211 0-26.904 0-51.312-10.687-69.211-28.048l0.025 0.024-16.98-16.41-156.603 156.551c35.686 64.783 103.521 107.945 181.437 107.945 3.255 0 6.493-0.075 9.712-0.224l-0.456 0.017zM129.228 263.49c3.611 3.626 8.607 5.87 14.127 5.87 3.942 0 7.616-1.144 10.71-3.118l-0.080 0.048c3.474-2.1-6.481 6.947 173.194-172.468 3.579-3.618 5.789-8.596 5.789-14.089s-2.211-10.471-5.791-14.091l0.002 0.002-82.514-81.425-196.473 197.977zM571.87 860.013v-23.331c-23.668-8.392-40.315-30.587-40.315-56.669 0-33.13 26.857-59.987 59.987-59.987 0.111 0 0.221 0 0.332 0.001h-0.017c11.038 0 19.987-8.948 19.987-19.987s-8.948-19.987-19.987-19.987v0c-10.739 1.126-19.966 6.786-25.849 15.004l-0.075 0.11c-3.693 4.371-9.178 7.129-15.308 7.129-11.046 0-20-8.954-20-20 0-4.916 1.774-9.418 4.716-12.901l-0.024 0.030c9.47-11.632 21.832-20.562 36.002-25.739l0.576-0.184v-23.331c0-11.038 8.948-19.987 19.987-19.987s19.987 8.948 19.987 19.987v0 23.331c23.668 8.392 40.315 30.587 40.315 56.669 0 33.13-26.857 59.987-59.987 59.987-0.111 0-0.221 0-0.332-0.001h0.017c-11.046 0-20 8.954-20 20s8.954 20 20 20v0c8.594-0.57 16.186-4.442 21.599-10.346l0.022-0.024c3.594-3.483 8.5-5.631 13.908-5.631 11.041 0 19.992 8.951 19.992 19.992 0 5.633-2.33 10.723-6.079 14.357l-0.005 0.005c-8.071 8.070-17.92 14.362-28.908 18.239l-0.541 0.166v23.331c0 11.038-8.948 19.987-19.987 19.987s-19.987-8.948-19.987-19.987v0z" />
<glyph unicode="&#xe926;" glyph-name="worldwide" d="M512.298 960c-0.046 0-0.1 0-0.154 0-209.946 0-390.377-126.366-469.383-307.188l-1.284-3.297-6.377-2.126 2.592-7.414c-23.622-56.793-37.341-122.763-37.341-191.937 0-282.748 229.213-511.961 511.961-511.961s511.961 229.213 511.961 511.961c0 282.748-229.213 511.961-511.961 511.961-0.005 0-0.011 0-0.016 0h0.001zM913.903 189.868l-26.286 26.26v61.205c0.001 0.052 0.001 0.113 0.001 0.174 0 2.71-0.632 5.272-1.756 7.547l0.045-0.1-66.571 132.935v64.238c0 0.004 0 0.009 0 0.013 0 5.894-2.989 11.090-7.535 14.154l-0.061 0.039-51.199 34.141c-2.665 1.802-5.951 2.877-9.488 2.877-1.483 0-2.921-0.189-4.293-0.544l0.119 0.026-62.709-15.554-105.301 45.055-14.491 101.516 40.155 40.155h86.195l29.008-43.603c2.592-3.846 6.624-6.551 11.306-7.348l0.101-0.014 102.397-17.058c0.842-0.148 1.811-0.233 2.801-0.233 1.929 0 3.783 0.323 5.51 0.917l-0.119-0.036 94.309 31.445c33.963-63.859 53.906-139.635 53.906-220.069 0-95.924-28.365-185.223-77.164-259.967l1.119 1.827zM843.495 791.835l-27.738-18.509-77.355 15.554-50.188 16.721c-1.602 0.56-3.448 0.883-5.37 0.883-1.472 0-2.9-0.19-4.261-0.546l0.117 0.026-63.46-15.865-27.816 9.255 20.739 41.244h57.731c0.005 0 0.011 0 0.017 0 2.771 0 5.388 0.661 7.701 1.833l-0.097-0.045 58.898 29.475c42.482-22.426 79.022-49.059 111.22-80.159l-0.138 0.133zM325.209 887.751l40.959-27.297c1.898-1.267 4.145-2.178 6.563-2.579l0.099-0.014 82.696-13.791-8.062-24.161-43.059-14.413c-3.926-1.333-7.126-3.937-9.186-7.313l-0.043-0.075-49.047-81.685-78.729-47.232-116.059-16.565c-8.334-1.21-14.665-8.303-14.673-16.875v-51.2c0-0.011 0-0.024 0-0.037 0-4.714 1.912-8.981 5.003-12.069v0l29.138-29.138v-29.319l-71.004 47.362-25.742 77.252c49.992 112.304 138.345 200.010 248.051 247.945l3.095 1.205zM276.629 328.195l-77.148 15.554-28.671 57.083v40.103l63.59 63.59 23.538-47.077c2.862-5.639 8.618-9.436 15.26-9.436 0.003 0 0.006 0 0.009 0h109.811l46.221-77.044c3.037-4.989 8.445-8.27 14.62-8.27 0 0 0.001 0 0.001 0h47.44l-11.925-59.857-64.601-64.653c-3.095-3.082-5.015-7.343-5.029-12.052v-42.543l-61.438-46.092c-4.159-3.145-6.818-8.083-6.818-13.642 0-0.007 0-0.014 0-0.021v0.001-61.646l-21.231 7.025-29.916 74.867v167.387c-0.003 8.235-5.841 15.105-13.603 16.702l-0.11 0.019zM225.326 65.824c-116.529 88.086-191.049 226.419-191.049 382.158 0 49.791 7.617 97.804 21.75 142.935l-0.914-3.385 14.18-42.54c1.244-3.679 3.596-6.71 6.654-8.776l0.060-0.038 85.081-56.72-19.417-19.417c-3.088-3.084-4.999-7.346-5.003-12.054v-51.2c0-0.005 0-0.011 0-0.017 0-2.771 0.661-5.388 1.833-7.701l-0.045 0.097 34.141-68.179c2.371-4.654 6.683-8.029 11.841-9.080l0.11-0.019 71.678-14.31v-156.681c0.001-2.279 0.449-4.453 1.26-6.439l-0.041 0.114 34.141-85.34c1.881-4.643 5.61-8.202 10.25-9.815l0.12-0.036 51.199-17.058c1.543-0.539 3.323-0.86 5.175-0.881h0.010c9.421 0 17.058 7.637 17.058 17.058v0 76.707l61.438 46.092c4.159 3.145 6.818 8.083 6.818 13.642 0 0.007 0 0.014 0 0.021v-0.001 44.070l63.279 63.279c2.309 2.31 3.96 5.279 4.647 8.6l0.019 0.111 17.058 85.34c0.21 1.005 0.331 2.161 0.331 3.344 0 9.419-7.634 17.054-17.051 17.058h-58.276l-46.351 77.174c-3.037 4.989-8.445 8.27-14.62 8.27 0 0-0.001 0-0.001 0h-108.878l-29.371 58.768c-2.453 4.844-7.017 8.312-12.447 9.215l-0.099 0.014c-0.86 0.157-1.85 0.247-2.861 0.247-4.676 0-8.904-1.92-11.939-5.014l-0.003-0.003-22.165-22.061v27.038c-0.004 4.709-1.915 8.97-5.003 12.054v0l-29.112 29.138v29.345l104.834 14.958c2.395 0.357 4.546 1.159 6.452 2.324l-0.075-0.043 85.34 51.199c2.406 1.463 4.37 3.426 5.79 5.758l0.043 0.075 47.958 79.922 45.184 15.061c5.116 1.716 9.068 5.668 10.749 10.665l0.035 0.119 17.058 51.199c0.544 1.596 0.858 3.434 0.858 5.346 0 8.429-6.104 15.432-14.132 16.83l-0.102 0.015-98.794 16.461-17.369 11.562c44.041 14.834 94.76 23.394 147.477 23.394 65.178 0 127.301-13.085 183.883-36.772l-3.144 1.168-31.108-15.554h-64.264c-0.033 0-0.073 0-0.112 0-6.643 0-12.399-3.797-15.216-9.339l-0.045-0.097-34.141-68.23c-1.124-2.215-1.783-4.83-1.783-7.598 0-7.494 4.826-13.862 11.539-16.164l0.12-0.036 51.199-17.058c1.601-0.56 3.447-0.884 5.369-0.884 1.473 0 2.901 0.19 4.262 0.547l-0.117-0.026 63.46 15.865 46.481-15.554c0.575-0.215 1.263-0.404 1.971-0.533l0.077-0.012 85.34-17.058c0.992-0.206 2.132-0.324 3.299-0.324 3.549 0 6.842 1.090 9.565 2.954l-0.058-0.038 38.885 25.923c18.324-20.344 35.249-42.761 50.15-66.574l1.178-2.019-83.966-27.997-90.939 15.087-30.019 45.107c-3.087 4.548-8.219 7.506-14.045 7.544h-102.403c-4.709-0.004-8.97-1.915-12.054-5.003v0l-51.199-51.199c-3.087-3.087-4.996-7.351-4.996-12.061 0-0.857 0.063-1.7 0.185-2.523l-0.011 0.093 17.058-119.455c0.917-6.035 4.887-10.968 10.257-13.231l0.112-0.042 119.455-51.199c1.981-0.883 4.292-1.397 6.723-1.397 1.47 0 2.897 0.188 4.256 0.541l-0.117-0.026 60.946 15.243 37.252-24.886v-59.131c-0.001-0.052-0.001-0.113-0.001-0.174 0-2.71 0.632-5.272 1.756-7.547l-0.045 0.1 66.571-132.935v-64.238c0.004-4.709 1.915-8.97 5.003-12.054v0l35.697-35.722c-88.083-116.581-226.447-191.138-382.225-191.138-108.172 0-207.948 35.951-288.029 96.557l1.198-0.869z" />
<glyph unicode="&#xe927;" glyph-name="uniE927" d="M226.94 341.184l-35.644-133.064-130.278-2.756c-38.934 72.214-61.018 154.836-61.018 242.636 0 84.902 20.648 164.966 57.248 235.464h0.028l115.984-21.264 50.808-115.288c-10.634-31.002-16.43-64.282-16.43-98.912 0.004-37.584 6.812-73.594 19.302-106.816z" />
<glyph unicode="&#xe928;" glyph-name="uniE928" d="M1015.054 543.648c5.88-30.972 8.946-62.958 8.946-95.648 0-36.656-3.854-72.412-11.196-106.902-24.924-117.366-90.050-219.85-180.268-292.374l-0.028 0.028-146.088 7.454-20.676 129.070c59.864 35.108 106.648 90.050 131.292 155.822h-273.78v202.55h491.798z" />
<glyph unicode="&#xe929;" glyph-name="uniE929" d="M832.506 48.752l0.028-0.028c-87.742-70.526-199.202-112.724-320.534-112.724-194.982 0-364.504 108.982-450.982 269.362l165.922 135.82c43.238-115.396 154.556-197.542 285.060-197.542 56.094 0 108.646 15.164 153.74 41.636l166.766-136.524z" />
<glyph unicode="&#xe92a;" glyph-name="uniE92A" d="M838.808 842.128l-165.866-135.792c-46.67 29.172-101.838 46.024-160.942 46.024-133.458 0-246.858-85.914-287.93-205.448l-166.822 136.552c85.212 164.29 256.872 276.536 454.752 276.536 124.23 0 238.136-44.252 326.808-117.872z" />
<glyph unicode="&#xe92b;" glyph-name="facebook" d="M269.882 414.618h112.246v-462.102c0-9.124 7.392-16.516 16.516-16.516h190.318c9.124 0 16.516 7.392 16.516 16.516v459.924h129.038c8.39 0 15.45 6.296 16.408 14.63l19.598 170.122c0.538 4.68-0.944 9.368-4.076 12.88-3.134 3.514-7.62 5.526-12.328 5.526h-148.632v106.642c0 32.146 17.308 48.448 51.452 48.448 4.866 0 97.18 0 97.18 0 9.124 0 16.516 7.396 16.516 16.516v156.158c0 9.124-7.392 16.516-16.516 16.516h-133.93c-0.944 0.046-3.042 0.122-6.134 0.122-23.238 0-104.012-4.562-167.818-63.26-70.696-65.048-60.868-142.93-58.52-156.434v-124.704h-117.836c-9.124 0-16.516-7.392-16.516-16.516v-167.95c0.002-9.122 7.394-16.518 16.518-16.518z" />
<glyph unicode="&#xe92c;" glyph-name="mail" d="M829.086 249.751c-4.061 0-8.123 1.486-11.293 4.491l-189.994 178.239c-6.637 6.208-6.967 16.675-0.726 23.312 6.241 6.703 16.642 7 23.345 0.726l189.994-178.239c6.637-6.208 6.967-16.675 0.726-23.312-3.269-3.467-7.627-5.217-12.052-5.217zM194.881 249.751c-4.392 0-8.783 1.75-12.052 5.217-6.241 6.637-5.91 17.104 0.726 23.312l190.060 178.239c6.67 6.208 17.137 5.944 23.345-0.726 6.241-6.637 5.91-17.104-0.726-23.312l-190.060-178.239c-3.17-3.005-7.231-4.491-11.293-4.491zM941.451 84.026h-858.903c-45.501 0-82.549 37.015-82.549 82.549v562.883c0 45.534 37.048 82.549 82.549 82.549h858.903c45.501 0 82.549-37.015 82.549-82.549v-562.883c0-45.534-37.048-82.549-82.549-82.549zM82.549 778.987c-27.307 0-49.529-22.222-49.529-49.529v-562.883c0-27.307 22.222-49.529 49.529-49.529h858.903c27.307 0 49.529 22.222 49.529 49.529v562.883c0 27.307-22.222 49.529-49.529 49.529h-858.903zM512 365.055c-21.958 0-43.916 7.297-60.624 21.859l-423.97 369.851c-6.868 5.977-7.594 16.411-1.618 23.312 6.043 6.868 16.444 7.495 23.312 1.585l423.97-369.818c21.099-18.392 56.76-18.392 77.827 0l423.442 369.224c6.835 5.977 17.236 5.316 23.312-1.585 5.977-6.901 5.283-17.302-1.585-23.312l-423.442-369.224c-16.741-14.595-38.666-21.892-60.624-21.892z" />
<glyph unicode="&#xe92d;" glyph-name="lock" d="M461.584 251.374l-13.458-121.020c-0.666-6.020 1.27-12.062 5.312-16.584 4.042-4.52 9.834-7.104 15.896-7.104h85.334c6.062 0 11.854 2.584 15.896 7.104s5.98 10.562 5.312 16.584l-13.458 121.020c21.854 15.896 34.916 41.042 34.916 68.626 0 47.062-38.27 85.334-85.334 85.334s-85.334-38.272-85.334-85.334c0-27.584 13.064-52.73 34.918-68.626zM512 362.666c23.52 0 42.666-19.146 42.666-42.666 0-16.354-9.292-31-24.25-38.25-8.146-3.958-12.916-12.584-11.916-21.562l12.334-110.854h-37.666l12.334 110.854c1 8.98-3.77 17.604-11.916 21.562-14.958 7.25-24.25 21.896-24.25 38.25-0.002 23.52 19.144 42.666 42.664 42.666zM874.666 576h-64v85.334c0 164.686-133.978 298.666-298.666 298.666s-298.666-133.98-298.666-298.666v-85.334h-64c-11.792 0-21.334-9.542-21.334-21.334v-533.334c0-47.062 38.27-85.332 85.334-85.332h597.334c47.062 0 85.332 38.27 85.332 85.334v533.332c0 11.792-9.542 21.334-21.334 21.334zM256 661.334c0 141.166 114.834 256 256 256s256-114.834 256-256v-85.334h-42.666v85.334c0 117.626-95.708 213.334-213.334 213.334s-213.334-95.71-213.334-213.334v-85.334h-42.666v85.334zM682.666 661.334v-85.334h-341.332v85.334c0 94.104 76.562 170.666 170.666 170.666s170.666-76.562 170.666-170.666zM853.334 21.334c0-23.52-19.146-42.666-42.666-42.666h-597.334c-23.52 0-42.666 19.146-42.666 42.666v512h682.666v-512z" />
<glyph unicode="&#xe92e;" glyph-name="user" d="M874.040 298.040c-55.766 55.764-122.142 97.046-194.562 122.036 77.564 53.422 128.522 142.828 128.522 243.924 0 163.214-132.786 296-296 296s-296-132.786-296-296c0-101.096 50.958-190.502 128.524-243.924-72.42-24.99-138.796-66.272-194.562-122.036-96.704-96.706-149.962-225.28-149.962-362.040h80c0 238.206 193.794 432 432 432s432-193.794 432-432h80c0 136.76-53.258 265.334-149.96 362.040zM512 448c-119.102 0-216 96.896-216 216s96.898 216 216 216c119.102 0 216-96.896 216-216s-96.898-216-216-216z" />
<glyph unicode="&#xe92f;" glyph-name="combine" d="M264.258 960v-264.258h-264.258v-759.742h759.742v264.258h264.258v759.742zM660.64 35.102h-561.538v561.538h165.157v-396.381h396.381zM660.64 299.36h-297.279v297.279h297.279v-297.279zM924.898 299.36h-165.157v396.381h-396.381v165.157h561.538v-561.538z" />
<glyph unicode="&#xe930;" glyph-name="money" d="M681.904 716.248c0.376 1.401 0.651 3.045 0.767 4.732l0.005 0.082v102.4c0 9.427-7.642 17.069-17.069 17.069s-17.069-7.642-17.069-17.069v0-76.747c-36.673 26.605-82.579 42.559-132.211 42.559-0.441 0-0.882-0.001-1.323-0.004h-1.421c-0.218 0.001-0.477 0.001-0.736 0.001-37.734 0-73.284-9.348-104.461-25.855l1.214 0.586v76.534c0 9.427-7.642 17.069-17.069 17.069s-17.069-7.642-17.069-17.069v0-98.41c-54.452-42.707-89.114-108.502-89.114-182.392 0-126.801 102.074-229.762 228.535-231.196l0.136-0.001h1.489c125.901 1.896 227.234 104.402 227.234 230.575 0 60.791-23.523 116.087-61.963 157.284l0.125-0.135zM516.282 362.662h-1.263c-108.019 0.502-195.392 88.184-195.392 196.274 0 107.659 86.678 195.073 194.056 196.263l0.113 0.001h1.263c108.019-0.502 195.392-88.184 195.392-196.274 0-107.659-86.678-195.073-194.056-196.263l-0.113-0.001zM392.524 960.053c0 0 0 0 0 0-9.423 0-17.062-7.639-17.062-17.062 0-0.019 0-0.037 0-0.056v0.003-34.138c0-9.427 7.642-17.069 17.069-17.069s17.069 7.642 17.069 17.069v0 34.138c0 0.016 0 0.035 0 0.053 0 9.423-7.639 17.062-17.062 17.062-0.005 0-0.009 0-0.014 0h0.001zM665.6 942.991c-0.004 0-0.009 0-0.013 0-9.416 0-17.049-7.633-17.049-17.049 0-0.023 0-0.047 0-0.070v0.004-34.138c0-9.427 7.642-17.069 17.069-17.069s17.069 7.642 17.069 17.069v0 34.138c0 0.020 0 0.043 0 0.067 0 9.416-7.633 17.049-17.049 17.049-0.009 0-0.019 0-0.028 0h0.001zM204.8 567.515c0 0 0 0 0 0-9.423 0-17.062-7.639-17.062-17.062 0-0.019 0-0.037 0-0.056v0.003-136.538c0-9.427 7.642-17.069 17.069-17.069s17.069 7.642 17.069 17.069v0 136.538c0 0.016 0 0.035 0 0.053 0 9.423-7.639 17.062-17.062 17.062-0.005 0-0.009 0-0.014 0h0.001zM204.8 669.915c0 0 0 0 0 0-9.423 0-17.062-7.639-17.062-17.062 0-0.019 0-0.037 0-0.056v0.003-34.138c0-9.427 7.642-17.069 17.069-17.069s17.069 7.642 17.069 17.069v0 34.138c0 0.016 0 0.035 0 0.053 0 9.423-7.639 17.062-17.062 17.062-0.005 0-0.009 0-0.014 0h0.001zM853.324 721.115c-0.004 0-0.009 0-0.013 0-9.416 0-17.049-7.633-17.049-17.049 0-0.023 0-0.047 0-0.070v0.004-136.538c0-9.427 7.642-17.069 17.069-17.069s17.069 7.642 17.069 17.069v0 136.538c0 0.020 0 0.043 0 0.067 0 9.416-7.633 17.049-17.049 17.049-0.009 0-0.019 0-0.028 0h0.001zM853.324 823.515c-0.004 0-0.009 0-0.013 0-9.416 0-17.049-7.633-17.049-17.049 0-0.023 0-0.047 0-0.070v0.004-34.138c0-9.427 7.642-17.069 17.069-17.069s17.069 7.642 17.069 17.069v0 34.138c0 0.020 0 0.043 0 0.067 0 9.416-7.633 17.049-17.049 17.049-0.009 0-0.019 0-0.028 0h0.001zM580.036 517.034l-0.12 17.049c-0.041 14.147-5.859 26.927-15.219 36.112l-0.008 0.008c-9.080 9.044-21.605 14.636-35.436 14.636-0.306 0-0.611-0.003-0.915-0.008l0.046 0.001-34.244-0.319c-9.396 0.067-16.995 7.666-17.062 17.056v0.006l-0.106 17.102c0 0.032 0 0.069 0 0.107 0 9.399 7.581 17.026 16.962 17.102l16.67 0.12c0.545 0 1.024-0.293 1.609-0.293h0.106c0.585 0 1.077 0.293 1.636 0.346l48.234 0.306c9.224 0.030 16.69 7.515 16.69 16.743 0 9.247-7.496 16.743-16.743 16.743-0.019 0-0.037 0-0.056 0h-0.103l-32.821 0.12-0.106 16.889c-0.007 9.447-7.626 17.112-17.054 17.195h-0.114c-9.397-0.12-16.969-7.766-16.969-17.181 0-0.038 0-0.076 0-0.114v0.006l0.106-16.849h-1.33c-28.122-0.098-50.882-22.918-50.882-51.053 0-0.131 0-0.262 0.001-0.393v0.020l0.106-17.115c0.226-28.134 23.055-50.861 51.208-50.921h34.583c0.119 0.003 0.259 0.005 0.399 0.005 9.195 0 16.651-7.448 16.663-16.64v-0.001l0.12-16.996c0-0.032 0-0.069 0-0.107 0-9.388-7.588-17.004-16.965-17.049h-0.004l-68.262-0.426c-9.194-0.293-16.536-7.816-16.536-17.054 0-9.275 7.401-16.822 16.62-17.057h0.128l34.138 0.226 0.106-17.408c0.068-9.372 7.681-16.943 17.062-16.943 0 0 0 0 0 0h0.106c9.385 0.060 16.969 7.682 16.969 17.075 0 0.038 0 0.075 0 0.112v-0.006l-0.106 17.395c28.153 0.211 50.894 23.082 50.894 51.265 0 0.066 0 0.132 0 0.198v-0.010zM398.961 547.74c0-7.345-5.954-13.299-13.299-13.299s-13.299 5.954-13.299 13.299c0 7.345 5.954 13.299 13.299 13.299s13.299-5.954 13.299-13.299zM651.636 547.74c0-7.345-5.954-13.299-13.299-13.299s-13.299 5.954-13.299 13.299c0 7.345 5.954 13.299 13.299 13.299s13.299-5.954 13.299-13.299zM1006.938 294.453h-187.738c-22.083-0.074-40.862-14.134-47.949-33.781l-0.112-0.356h-85.431c-9.207-0.018-16.695-7.349-16.969-16.492l-0.001-0.025-142.389 32.303c-3.465 0.824-7.443 1.296-11.532 1.296-6.925 0-13.534-1.355-19.576-3.815l0.347 0.125-133.625-53.009c-16.769-6.648-29.557-20.229-34.992-37.109l-0.117-0.42-260.96 76.494c-4.419 1.367-9.498 2.154-14.762 2.154-11.696 0-22.483-3.887-31.142-10.44l0.129 0.094c-12.263-9.128-20.121-23.582-20.121-39.871 0-0.009 0-0.018 0-0.026v0.001-37.024c0.024-17.526 9.098-32.928 22.798-41.786l0.195-0.118 189.6-122.694c1.572-1.023 3.403-1.817 5.362-2.277l0.117-0.023 282.278-64.459c3.502-0.835 7.523-1.314 11.656-1.314s8.154 0.479 12.011 1.384l-0.355-0.070 148.56 34.085c3.024-4.283 7.93-7.063 13.488-7.128h85.441c7.199-20.004 25.979-34.064 48.053-34.138h187.747c9.416 0 17.049 7.633 17.049 17.049v324.276c0 0.012 0 0.026 0 0.040 0 9.426-7.637 17.068-17.062 17.076h-0.001zM664.523 10.513l-148.533-34.058c-1.199-0.289-2.575-0.454-3.99-0.454s-2.791 0.165-4.11 0.478l0.121-0.024-279.366 63.834-187.086 121.018c-4.445 2.831-7.36 7.721-7.394 13.294v37.029c0 0.001 0 0.002 0 0.004 0 5.154 2.519 9.719 6.392 12.533l0.045 0.031c2.901 2.209 6.575 3.538 10.56 3.538 1.836 0 3.606-0.282 5.27-0.806l-0.124 0.034 270.961-79.579c8.481-23.87 30.874-40.655 57.187-40.655 0.092 0 0.185 0 0.277 0.001h127.268c9.427 0 17.069 7.642 17.069 17.069s-7.642 17.069-17.069 17.069v0h-127.322c-0.181-0.005-0.395-0.007-0.609-0.007-13.919 0-25.251 11.073-25.668 24.891l-0.001 0.038c0.123 10.534 6.732 19.493 16.013 23.082l0.171 0.058 133.625 53.049c1.973 0.813 4.263 1.284 6.663 1.284 1.41 0 2.781-0.163 4.097-0.47l-0.121 0.024 146.711-33.247zM768 4.262h-68.262v221.876h68.262zM989.862-29.876h-170.662c-9.42 0.008-17.055 7.642-17.062 17.062v256.001c0.008 9.42 7.642 17.055 17.062 17.062h170.663zM924.645 38.453h-51.2c-9.427 0-17.069-7.642-17.069-17.069s7.642-17.069 17.069-17.069v0h51.2c9.427 0 17.069 7.642 17.069 17.069s-7.642 17.069-17.069 17.069v0z" />
<glyph unicode="&#xe931;" glyph-name="Hot-Air-Balloon" horiz-adv-x="1026" d="M523.911 959.987c-19.568-0.227-12.298 0-20.475 0-209.469 0.013-337.705-150.245-315.257-324.593-46.85-0.496-87.175-27.93-106.265-67.527l-0.31-0.713c-44.407-3.326-79.176-40.174-79.176-85.142 0-46.94 37.885-85.031 84.747-85.364h199.71c24.001-35.067 49.821-65.723 78.365-93.601l0.119-0.116 29.945-130.878c-20.554-6.861-35.107-25.93-35.107-48.398 0-22.062 14.032-40.846 33.659-47.915l0.355-0.112v-88.448c0-28.266 22.914-51.18 51.18-51.18v0h136.52c28.266 0 51.18 22.914 51.18 51.18v88.448c19.981 7.18 34.014 25.965 34.014 48.027 0 22.468-14.554 41.537-34.748 48.293l-0.359 0.104 29.905 130.718c81.176 79.688 141.056 180.8 170.491 294.183l0.976 4.427h106.815c46.455 0.896 83.77 38.766 83.77 85.352 0 44.608-34.215 81.225-77.833 85.039l-0.322 0.023c-19.449 40.681-60.274 68.283-107.545 68.283-15.961 0-31.188-3.147-45.093-8.854l0.792 0.288c-57.569 87.341-166.665 129.557-270.052 128.477zM764.405 814.623c-14.525-11.334-26.172-25.663-34.132-42.11l-0.308-0.707c-7.904-0.63-15.225-2.265-22.12-4.787l0.578 0.185c-8.578 44.36-25.533 83.667-49.25 117.938l0.671-1.025c5.631 2.738 10.349 5.463 14.859 8.475l-0.454-0.285c36.857-18.128 67.204-44.517 89.503-76.88l0.506-0.777zM563.153 174.853l10.898 65.852c17.084 7.858 31.736 16.523 45.383 26.484l-0.739-0.514-21.022-91.823zM498.835 174.853l-8.91 53.928c7.149-1.574 15.361-2.476 23.783-2.476s16.634 0.902 24.543 2.614l-0.761-0.138-8.937-53.861zM429.715 174.853l-21.008 91.823c12.907-9.447 27.56-18.112 43.038-25.301l1.606-0.67 10.831-65.852zM631.94 909.247c-35.38-11.295-76.076-17.805-118.293-17.805s-82.913 6.51-121.139 18.581l2.846-0.775c35.415 10.866 76.123 17.123 118.293 17.123s82.878-6.257 121.247-17.894l-2.954 0.77zM400.957 871.485c28.463-8.025 61.293-13.044 95.16-13.889l0.504-0.010v-495.674c-24.195-1.006-47.085-4.643-68.999-10.641l2.159 0.504c-19.647 36.317-37.558 78.802-51.374 123.093l-1.393 5.184c0.027 0.792 0.043 1.723 0.043 2.658 0 17.086-5.162 32.966-14.010 46.167l0.189-0.3c-12.366 43.487-19.475 93.432-19.475 145.038 0 16.168 0.698 32.172 2.065 47.985l-0.143-2.055c8.177 65.532 26.837 116.459 55.288 151.939zM358.273 429.059c12.828-35.217 25.926-64.419 40.796-92.539l-1.927 3.997c-5.609-2.518-10.161-4.892-14.566-7.488l0.694 0.378c-21.023 21.111-40.422 43.879-57.972 68.077l-1.145 1.657c13.711 5.847 25.166 14.683 33.945 25.74l0.135 0.176zM513.641 260.153c-29.345 0-65.679 17.18-103.694 48.686 30.777 12.131 66.424 19.163 103.714 19.163s72.937-7.032 105.688-19.842l-1.974 0.68c-37.988-31.506-74.309-48.686-103.734-48.686zM597.233 351.936c-19.653 5.378-42.44 8.951-65.896 9.942l-0.637 0.021v495.687c34.466 0.865 67.381 5.913 98.757 14.654l-2.84-0.675c25.461-34.569 43.326-76.267 50.29-121.56l0.197-1.555c-16.613-15.415-26.976-37.367-26.976-61.74 0-26.103 11.887-49.43 30.543-64.863l0.141-0.113c-12.256-100.422-41.765-191.602-85.59-274.011l2.050 4.225zM223.274 718.172c13.48 76.959 62.292 140.243 128.762 173.404l1.382 0.624c3.968-2.657 8.59-5.32 13.388-7.681l0.725-0.322c-30.327-45.417-50.381-100.103-55.621-159.050l-0.095-1.319c-1.594-15.471-2.503-33.429-2.503-51.599 0-39.127 4.215-77.269 12.217-113.998l-0.643 3.521c-6.863 2.731-14.813 4.627-23.106 5.315l-0.303 0.020c-14.67 30.626-41.136 53.621-73.358 63.352l-0.845 0.219c-2.483 13.168-3.903 28.317-3.903 43.797s1.42 30.629 4.137 45.323l-0.234-1.526zM35.961 481.947c0.044 28.284 22.983 51.196 51.273 51.196 0.455 0 0.909-0.006 1.361-0.018l-0.067 0.001c0.212 0.017 0.458 0.026 0.707 0.026s0.495-0.009 0.739-0.028l-0.032 0.002c0.905-0.17 1.945-0.267 3.009-0.267 7.42 0 13.734 4.737 16.082 11.352l0.037 0.119c12.105 33.381 43.54 56.799 80.445 56.799s68.34-23.418 80.256-56.205l0.189-0.594c2.564-6.719 8.956-11.405 16.441-11.405 0.934 0 1.851 0.073 2.745 0.213l-0.099-0.013c0.221 0.016 0.48 0.026 0.74 0.026s0.519-0.009 0.775-0.028l-0.034 0.002c0.485 0.016 1.054 0.026 1.626 0.026 28.273 0 51.193-22.92 51.193-51.193s-22.92-51.193-51.193-51.193c-0.103 0-0.206 0-0.308 0.001h-204.691c-0.004 0-0.009 0-0.013 0-28.266 0-51.18 22.914-51.18 51.18v0zM599.007-12.82c0-9.422-7.638-17.060-17.060-17.060v0h-136.52c-9.422 0-17.060 7.638-17.060 17.060v0 85.367h170.64zM616.067 106.613h-204.76c-9.422 0-17.060 7.638-17.060 17.060s7.638 17.060 17.060 17.060v0h204.733c9.422 0 17.060-7.638 17.060-17.060s-7.638-17.060-17.060-17.060v0zM644.265 333.262c-3.866 2.31-8.606 4.782-13.481 7.008l-0.965 0.394c40.166 76.551 69.425 165.572 82.813 259.705l0.513 4.398c15.446-4.228 14.072-3.415 85.367-3.415-28.941-105.319-82.489-195.761-154.225-268.15l0.045 0.045zM940.194 635.5h-204.733c-0.010 0-0.021 0-0.032 0-10.507 0-20.27 3.189-28.373 8.652l0.181-0.115-0.427 0.24c-13.694 9.326-22.569 24.845-22.569 42.436 0 28.266 22.914 51.18 51.18 51.18 0.497 0 0.993-0.007 1.487-0.021l-0.073 0.002c0.212 0.017 0.458 0.026 0.707 0.026s0.495-0.009 0.739-0.028l-0.032 0.002c0.905-0.17 1.945-0.267 3.009-0.267 7.42 0 13.734 4.737 16.082 11.352l0.037 0.119c12.105 33.381 43.54 56.799 80.445 56.799s68.34-23.418 80.256-56.205l0.189-0.594c2.564-6.719 8.956-11.405 16.441-11.405 0.934 0 1.851 0.073 2.745 0.213l-0.099-0.013c0.423 0.032 0.916 0.051 1.414 0.051s0.991-0.019 1.479-0.055l-0.065 0.004c28.266 0 51.18-22.914 51.18-51.18s-22.914-51.18-51.18-51.18v0zM206.587 243.093c9.422 0 17.060 7.638 17.060 17.060s-7.638 17.060-17.060 17.060v0h-119.433c-9.422 0-17.060-7.638-17.060-17.060s7.638-17.060 17.060-17.060v0zM308.934 243.093c9.422 0 17.060 7.638 17.060 17.060s-7.638 17.060-17.060 17.060v0h-34.12c-9.422 0-17.060-7.638-17.060-17.060s7.638-17.060 17.060-17.060v0zM1.841 191.913c0-9.422 7.638-17.060 17.060-17.060v0h204.733c9.422 0 17.060 7.638 17.060 17.060s-7.638 17.060-17.060 17.060v0h-204.733c-9.422 0-17.060-7.638-17.060-17.060v0zM906.087 243.093c9.422 0 17.060 7.638 17.060 17.060s-7.638 17.060-17.060 17.060v0h-119.433c-9.422 0-17.060-7.638-17.060-17.060s7.638-17.060 17.060-17.060v0zM1008.434 277.213h-34.12c-9.422 0-17.060-7.638-17.060-17.060s7.638-17.060 17.060-17.060v0h34.12c9.422 0 17.060 7.638 17.060 17.060s-7.638 17.060-17.060 17.060v0zM701.341 191.913c0-9.422 7.638-17.060 17.060-17.060v0h204.733c9.422 0 17.060 7.638 17.060 17.060s-7.638 17.060-17.060 17.060v0h-204.733c-9.422 0-17.060-7.638-17.060-17.060v0z" />
<glyph unicode="&#xe932;" glyph-name="home" horiz-adv-x="1118" d="M941.921-64h-766.307c-9.367 0-16.96 7.593-16.96 16.96v0 629.74c-0.020 0.31-0.032 0.671-0.032 1.036 0 9.367 7.593 16.96 16.96 16.96s16.96-7.593 16.96-16.96c0-0.364-0.011-0.726-0.034-1.085l0.002 0.049v-612.843h732.767v612.843c-0.020 0.31-0.032 0.671-0.032 1.036 0 9.367 7.593 16.96 16.96 16.96s16.96-7.593 16.96-16.96c0-0.364-0.011-0.726-0.034-1.085l0.002 0.049v-629.803c0-0.001 0-0.002 0-0.003 0-9.332-7.565-16.897-16.897-16.897-0.111 0-0.222 0.001-0.333 0.003h0.017zM1100.637 414.618c-4.51 0.004-8.609 1.762-11.653 4.628l0.009-0.008-530.257 500.514-530.194-500.704c-2.957-2.573-6.848-4.141-11.105-4.141-9.367 0-16.96 7.593-16.96 16.96 0 4.588 1.821 8.75 4.781 11.803l-0.004-0.004 541.838 511.715c3.031 2.867 7.132 4.629 11.644 4.629s8.614-1.762 11.652-4.636l-0.008 0.007 541.902-511.715c3.243-3.095 5.259-7.451 5.259-12.277 0-9.347-7.561-16.928-16.9-16.96h-0.003zM693.973-64h-270.286c-9.367 0-16.96 7.593-16.96 16.96v0 367.048c0 9.367 7.593 16.96 16.96 16.96v0h270.286c9.367 0 16.96-7.593 16.96-16.96v0-367.048c0-9.367-7.593-16.96-16.96-16.96v0zM440.837-30.143h236.429v333.127h-236.683z" />
<glyph unicode="&#xe933;" glyph-name="frontal-taxi-cab" horiz-adv-x="1144" d="M1095.606 600.153c-5.619-0.021-11.042-0.822-16.179-2.3l0.418 0.103-55.618-15.155-58.724 143.136c-21.226 44.448-64.738 75.18-115.679 77.806l-0.329 0.014h-38.72v118.434c0 20.924-16.962 37.887-37.887 37.887v0h-401.068c-20.924 0-37.887-16.962-37.887-37.887v0-118.661h-39.857c-51.256-2.624-94.764-33.326-115.657-76.928l-0.352-0.816-58.649-142.908-54.86 15.155c-4.718 1.372-10.141 2.173-15.747 2.197h-0.014c-0.117 0.001-0.255 0.002-0.393 0.002-26.783 0-48.495-21.712-48.495-48.495 0-1.040 0.033-2.073 0.097-3.097l-0.007 0.14v-30.309c0.043-34.8 28.243-63 63.039-63.043h4.020l-8.411-20.459c-17.161-44.486-27.9-95.928-29.683-149.638l-0.020-0.772v-285.514c0.043-34.8 28.243-63 63.039-63.043h75.777c34.8 0.043 63 28.243 63.043 63.039v70.019h681.959v-70.166c0.043-34.8 28.243-63 63.039-63.043h75.777c34.8 0.043 63 28.243 63.043 63.039v285.669c-1.803 54.482-12.542 105.924-30.792 153.653l1.089-3.243-8.411 20.459h4.849c34.8 0.043 63 28.243 63.043 63.039v30.313c0.055 0.861 0.086 1.867 0.086 2.881 0 26.783-21.712 48.495-48.495 48.495-0.137 0-0.273-0.001-0.41-0.002h0.021zM724.317 909.535c0 0.837 0.678 1.515 1.515 1.515v0h29.097c0.837 0 1.515-0.678 1.515-1.515v0-104.87c-0.031-0.481-0.293-0.894-0.676-1.133l-0.006-0.004h-30.991c-0.389 0.242-0.651 0.656-0.682 1.132v0.004zM515.258 911.050h35.007c0.915-0.067 1.683-0.633 2.040-1.424l0.006-0.015 41.524-104.416 37.887 47.131c0.229 0.341 0.365 0.761 0.365 1.212s-0.136 0.871-0.37 1.22l0.005-0.008-36.295 55.39c-0.455 0.682 0 1.288 0.682 1.288h32.355c0.942-0.068 1.758-0.557 2.267-1.279l0.006-0.010 18.868-30.309c0.109-0.342 0.424-0.585 0.796-0.585s0.686 0.243 0.794 0.579l0.002 0.006 18.868 30.309c0.515 0.731 1.331 1.22 2.263 1.288l0.010 0.001h32.355c0.834 0 1.137-0.53 0.682-1.288l-36.598-55.011c-0.229-0.341-0.365-0.761-0.365-1.212s0.136-0.871 0.37-1.22l-0.005 0.008 39.023-48.646c0.070-0.12 0.112-0.263 0.112-0.417s-0.041-0.297-0.114-0.421l0.002 0.004h-34.174c-0.462 0.205-0.845 0.515-1.131 0.902l-0.005 0.008-21.292 34.022c-0.158 0.282-0.455 0.469-0.796 0.469s-0.637-0.187-0.793-0.465l-0.002-0.005-21.217-34.022c-0.292-0.394-0.675-0.704-1.119-0.902l-0.018-0.007h-64.71c-0.446 0.225-0.792 0.595-0.98 1.047l-0.005 0.014-7.123 22.505c-0.306 0.819-1.066 1.4-1.965 1.44h-39.71c-0.928-0.029-1.713-0.61-2.040-1.424l-0.005-0.015-7.577-21.898c-0.199-0.462-0.543-0.83-0.973-1.055l-0.012-0.006h-31.294c-0.107 0.147-0.171 0.331-0.171 0.53s0.064 0.383 0.173 0.533l-0.002-0.003 42.357 105.098c0.442 0.644 1.175 1.061 2.005 1.061 0.014 0 0.029 0 0.043 0h-0.002zM412.813 804.968v83.351c0 0.837-0.678 1.515-1.515 1.515v0h-35.083c-0.837 0-1.515 0.678-1.515 1.515v0 18.564c0 0.837 0.678 1.515 1.515 1.515v0h105.401c0.837 0 1.515-0.678 1.515-1.515v0-18.564c0-0.837-0.678-1.515-1.515-1.515v0h-35.235c-0.837 0-1.515-0.678-1.515-1.515v0-83.351c-0.031-0.481-0.293-0.894-0.676-1.133l-0.006-0.004h-30.84c-0.308 0.21-0.528 0.529-0.605 0.9l-0.002 0.009zM163.973 490.509l89.261 217.469c12.758 26.629 38.829 45.044 69.356 46.668l0.203 0.009h498.058c30.73-1.632 56.802-20.048 69.348-46.187l0.212-0.49 89.261-217.469c2.561-4.451 4.072-9.787 4.072-15.476 0-17.367-14.079-31.446-31.446-31.446-1.382 0-2.743 0.089-4.078 0.262l0.158-0.017h-753.186c-1.153-0.15-2.486-0.235-3.839-0.235-17.367 0-31.446 14.079-31.446 31.446 0 5.685 1.509 11.017 4.147 15.619l-0.081-0.153zM365.606 210.148c-0.043-13.918-11.314-25.19-25.228-25.232h-170.342c-13.918 0.043-25.19 11.314-25.232 25.228v81.081c0.043 13.918 11.314 25.19 25.228 25.232h170.342c13.918-0.043 25.19-11.314 25.232-25.228v-80.854zM997.176 210.148c-0.043-13.918-11.314-25.19-25.228-25.232h-170.342c-13.918 0.043-25.19 11.314-25.232 25.228v81.081c0.043 13.918 11.314 25.19 25.228 25.232h170.418c13.918-0.043 25.19-11.314 25.232-25.228v-0.004zM545.34 849.523c0.038-0.006 0.082-0.009 0.127-0.009 0.502 0 0.909 0.407 0.909 0.909 0 0.171-0.047 0.331-0.129 0.468l0.002-0.004-12.578 29.021c0 0.758-0.909 0.758-1.212 0l-13.336-29.021c-0.080-0.133-0.127-0.293-0.127-0.464 0-0.502 0.407-0.909 0.909-0.909 0.045 0 0.089 0.003 0.132 0.010l-0.005-0.001h25.308z" />
<glyph unicode="&#xe934;" glyph-name="traveler-with-a-suitcase" horiz-adv-x="893" d="M681.625 845.181c0-63.413-51.406-114.819-114.819-114.819s-114.819 51.406-114.819 114.819c0 63.413 51.406 114.819 114.819 114.819s114.819-51.406 114.819-114.819zM853.368 565.214c-102.601 10.552-202.079 121.553-227.070 136.964-14.354 10.332-31.55 17.672-50.187 20.731l-0.697 0.094c-5.050 0.994-10.857 1.562-16.796 1.562-2.934 0-5.836-0.139-8.699-0.41l0.365 0.028c-22.154-1.219-42.183-9.425-58.148-22.428l0.183 0.145c-7.416-5.877-14.035-11.968-20.18-18.508l-0.090-0.097c-70.951-72.333-129.523-157.125-172.079-250.74l-2.232-5.486c-1.975-4.85-3.121-10.477-3.121-16.372 0-11.876 4.652-22.664 12.233-30.644l-0.018 0.019-54.841-97.673-77.263 43.387c-2.743 1.606-6.039 2.554-9.558 2.554-7.020 0-13.159-3.776-16.495-9.407l-0.049-0.089-146.196-258.725c-1.542-2.699-2.452-5.932-2.452-9.378 0-7.148 3.914-13.381 9.715-16.674l0.095-0.050 58.451-32.905c-3.531-6.18-5.613-13.583-5.613-21.472 0-24.23 19.643-43.873 43.873-43.873s43.873 19.643 43.873 43.873c0 10.237-3.506 19.655-9.383 27.119l0.071-0.094 79.832 140.018 55.952 99.616 69.419 120.164c15.916 2.515 28.864 13.157 34.603 27.468l0.106 0.3c22.409 52.445 49.187 97.672 80.978 138.83l-1.076-1.449 13.884-160.011c1.508-18.316 9.159-34.605 20.863-47.036l-0.037 0.040c-35.89-65.115-132.521-242.967-167.369-303.639-5.244-8.432-8.352-18.666-8.352-29.625 0-31.323 25.392-56.715 56.715-56.715 21.421 0 40.068 11.875 49.717 29.401l0.148 0.293c32.488 56.368 117.249 227.347 154.457 291.56 47.282-78.521 95.781-172.499 138.496-269.597l6.52-16.617c9.035-20.072 28.86-33.793 51.891-33.793 31.335 0 56.736 25.402 56.736 56.736 0 8.304-1.784 16.192-4.99 23.301l0.144-0.358c-53.555 124.496-108.054 228.704-169.237 328.366l6.31-11.052c11.202 13.492 18.001 30.989 18.001 50.075 0 2.411-0.108 4.796-0.321 7.152l0.022-0.304-13.19 151.611c47.517-37.292 107.178-61.137 172.222-64.937l0.84-0.039c0.695-0.040 1.507-0.063 2.326-0.063s1.631 0.023 2.438 0.068l-0.112-0.005c24.398 0.282 44.068 20.126 44.068 44.564 0 22.872-17.23 41.721-39.419 44.273l-0.206 0.019zM105.656-37.482c-8.818 0-15.966 7.148-15.966 15.966s7.148 15.966 15.966 15.966c8.818 0 15.966-7.148 15.966-15.966v0c0-8.818-7.148-15.966-15.966-15.966v0z" />
<glyph unicode="&#xe935;" glyph-name="canoe" horiz-adv-x="910" d="M898.835 86.296l-94.272 94.272c-11.793 11.002-27.032 18.449-43.931 20.556l-0.386 0.039-20.963 1.778c-0.972 0.090-2.103 0.141-3.245 0.141-2.297 0-4.546-0.208-6.729-0.605l0.228 0.034-85.384 85.384c10.066 48.122 15.829 103.418 15.829 160.061 0 57.949-6.032 114.489-17.502 169.026l0.937-5.325 84.833 84.771c2.356-0.542 5.064-0.854 7.843-0.858h3.252l20.963 1.778c17.284 2.146 32.524 9.593 44.363 20.638l-0.046-0.043 94.211 94.211c6.888 6.897 11.147 16.421 11.147 26.939s-4.259 20.042-11.148 26.94v0l-26.97 26.97c-6.904 6.873-16.426 11.122-26.939 11.122s-20.035-4.249-26.941-11.123l0.001 0.001-94.211-94.027c-11.006-11.791-18.454-27.032-20.556-43.931l-0.039-0.385-1.778-20.963c-0.080-0.911-0.126-1.971-0.126-3.041 0-2.371 0.224-4.689 0.653-6.935l-0.036 0.23-68.835-68.773c-8.707 32.239-17.665 58.633-28.014 84.316l1.78-5c-33.626 85.861-82.175 159.156-143.069 220.117l0.006-0.006c-3.431 3.344-8.125 5.407-13.301 5.407s-9.87-2.063-13.305-5.411l0.004 0.004c-60.889-60.955-109.437-134.251-141.57-215.81l-1.493-4.301c-7.727-18.431-16.083-42.431-23.211-66.954l-1.307-5.252-61.479 61.724c0.392 2.016 0.616 4.334 0.616 6.705 0 1.071-0.046 2.13-0.135 3.178l0.009-0.136-1.9 20.963c-2.146 17.284-9.593 32.524-20.638 44.363l0.043-0.046-94.15 94.211c-6.904 6.873-16.426 11.122-26.939 11.122s-20.035-4.249-26.941-11.123l-26.969-26.969c-6.873-6.904-11.122-16.426-11.122-26.939s4.249-20.035 11.123-26.941l94.21-94.21c11.791-11.006 27.032-18.454 43.931-20.556l0.385-0.039 20.963-1.778h3.249c2.782 0.004 5.489 0.317 8.092 0.905l-0.246-0.047 77.355-77.355c-11.554-51.468-18.174-110.579-18.174-171.236 0-59.307 6.329-117.137 18.348-172.849l-0.971 5.368-77.845-77.845c-1.947 0.378-4.192 0.601-6.487 0.613h-3.259l-20.963-1.778c-17.284-2.146-32.524-9.593-44.363-20.638l0.046 0.043-94.272-94.272c-6.888-6.897-11.147-16.421-11.147-26.939s4.259-20.042 11.148-26.94v0l26.97-26.97c6.904-6.873 16.426-11.122 26.939-11.122s20.035 4.249 26.941 11.123l94.271 94.271c11.002 11.793 18.449 27.032 20.556 43.931l0.039 0.386 1.778 20.963c0.099 1.015 0.156 2.193 0.156 3.385 0 2.753-0.302 5.435-0.876 8.015l0.046-0.245 60.928 60.928c8.509-30.939 17.106-56.079 26.969-80.572l-1.777 4.995c33.626-85.861 82.175-159.156 143.069-220.117l-0.006 0.006c3.431-3.344 8.125-5.407 13.301-5.407s9.87 2.063 13.305 5.411l-0.004-0.004c60.889 60.955 109.437 134.251 141.57 215.81l1.493 4.301c9.008 21.757 18.285 49.283 25.947 77.474l1.207 5.214 68.038-68.038c-0.528-2.336-0.83-5.018-0.83-7.771 0-1.192 0.057-2.37 0.168-3.533l-0.011 0.148 1.778-20.963c2.146-17.284 9.593-32.524 20.638-44.363l-0.043 0.046 94.272-94.272c6.904-6.873 16.426-11.122 26.939-11.122s20.035 4.249 26.941 11.123l26.969 26.969c6.779 6.879 10.965 16.328 10.965 26.756 0 10.397-4.162 19.822-10.91 26.7l0.006-0.006zM741.183 751.596c1.372 7.954 4.758 14.949 9.613 20.656l-0.051-0.061 94.211 94.211 26.97-26.97-94.272-94.334c-5.647-4.804-12.641-8.19-20.339-9.525l-0.256-0.037-17.101-1.471zM152.748 735.659c-7.954 1.372-14.949 4.758-20.656 9.613l0.061-0.051-94.088 94.15 26.97 26.97 94.211-94.211c4.804-5.647 8.19-12.641 9.525-20.339l0.037-0.256 1.471-17.408zM168.746 147.224c-1.372-7.954-4.758-14.949-9.613-20.656l0.051 0.061-94.272-94.272-26.97 26.97 94.272 94.272c5.679 4.823 12.719 8.213 20.465 9.527l0.253 0.035 17.408 1.471zM621.78 447.877c0-0.258 0-0.563 0-0.869 0-44.679-3.79-88.472-11.067-131.076l0.646 4.573-65.647 65.892v127.556l65.157 65.157c7.020-39.099 11.034-84.104 11.034-130.047 0-0.374 0-0.748-0.001-1.122v0.059zM481.904 450.145l25.683 25.683v-51.365zM489.689 388.482h-69.448l34.754 34.754zM454.934 477.115l-25.683 25.683h51.365zM507.525 540.924h-114.193v19.002c0 31.567 25.59 57.158 57.158 57.158s57.158-25.59 57.158-57.158v0zM393.21 484.961l34.754-34.754-34.754-34.754zM393.21 350.418h114.316v-19.063c0-31.567-25.59-57.158-57.158-57.158s-57.158 25.59-57.158 57.158v0zM329.279 720.519c29.457 74.817 70.462 138.993 121.506 193.677l-0.325-0.352c50.626-54.341 91.551-118.518 119.51-189.236l1.425-4.090c10.866-26.398 21.273-58.651 29.345-91.819l0.996-4.844-56.33-56.33c-4.159 49.142-45.072 87.452-94.933 87.452-46.993 0-86.038-34.030-93.836-78.792l-0.082-0.569-55.534 55.534c8.728 35.473 18.41 65.275 29.939 94.14l-1.682-4.771zM279.016 448c-0.001 0.565-0.002 1.233-0.002 1.902 0 48.38 4.462 95.719 12.996 141.626l-0.734-4.755 63.808-63.808v-145.638l-64.421-64.421c-7.41 40.139-11.648 86.326-11.648 133.503 0 0.56 0.001 1.119 0.002 1.679v-0.087zM571.395 175.42c-29.386-74.807-70.311-138.983-121.27-193.688l0.334 0.363c-50.718 54.332-91.723 118.508-119.753 189.239l-1.428 4.087c-10.364 25.2-20.428 56.172-28.337 87.995l-1.024 4.867 55.166 55.166c4.971-48.377 45.507-85.792 94.782-85.792 51.931 0 94.156 41.558 95.232 93.231l0.002 0.1v1.165l56.821-56.821c-8.932-39.118-19.42-72.492-32.203-104.705l1.678 4.794zM845.018 32.356l-94.272 94.272c-4.804 5.647-8.19 12.641-9.525 20.339l-0.037 0.256-1.471 17.408 17.408-1.471c7.954-1.372 14.949-4.758 20.656-9.613l-0.061 0.051 94.272-94.272z" />
</font>
</defs>
</svg>
